アットウィキロゴ
恋歌疾風!かるたクイーンいろは
ねこまんまチーム!

ADVANCED

Level: 7
BPM: 120-168
Notes: 540

1
口口口口 |(120)----|
口口口口 |----|
口口口口 |----|
口口口口 |----|
2
口口口口 |--①-|
口③口口 |②-③-|
口口②口
口①口口

口口④口
口口口口
口口口口 |④---|
口⑤口口 |⑤---|
3
口②③口 |①-②-|
①⑥④口 |③-④-|
口⑤⑦口 |⑤-⑥-|
口口口口 |⑦---|
4
口口④④ |①---|
③口②② |②---|
①口口口 |③---|
口口口口 |④---|
5
口口口口 |①---|
口口口口 |----|
口①①口 |----|
口口口口 |----|
6
口④口口 |--①-|
口⑤③口 |②-③-|
口②⑥⑦ |④-⑤-|
口口①口 |⑥-⑦-|
7
口③②口 |①-②-|
口④⑥① |③-④-|
口⑦⑤口 |⑤-⑥-|
口口口口 |⑦---|
8
口口④口 |--①-|
口③⑤口 |②-③-|
⑦⑥②口 |④-⑤-|
口①口口 |⑥-⑦-|
9
口②③口 |①-②-|
①口④口 |③-④-|
口⑤口口 |⑤---|
口口口口 |----|
10
口口口口 |----|
口①口口 |(168)①---|
口口①口 |----|
口口口口 |----|
11
①口口① |①---|
口口口口 |----|
口口口口
口口口口
12
口①③口 |①---|
口口口口 |②---|
口②④口 |③---|
口口口口 |④---|
13
口口口口 |①---|
口②④口 |②---|
口口口口 |③---|
口①③口 |④---|
14
口①③口 |①---|
口口口口 |②---|
口②④口 |③---|
口口口口 |④---|
15
口口口口 |①---|
口②④口 |②---|
口口口口 |③---|
口①③口 |④---|
16
①①②② |--①-|
口口口口 |--②-|
③③④④ |--③-|
口口口口 |--④-|
17
③口口④ |--①-|
口①①口 |--②-|
口口口口 |--③-|
口②②口 |④---|
18
口①④口 |--①-|
口①④口 |--②-|
口③②口 |--③-|
口③②口 |--④-|
19
④①口③ |--①-|
口①口口 |--②-|
口口②口 |--③-|
口口②口 |④---|
20
口口口口 |①---|
口口①口 |②---|
口②口口 |③---|
口③口口 |----|
21
口口口口 |①---|
口③口口 |②---|
口口②口 |③---|
口口①口 |----|
22
口④②口 |①---|
③口口① |②---|
口口口口 |③---|
口口口口 |④---|
23
口口口口 |①---|
口口口口 |----|
口①①口 |----|
口口口口 |----|
24
口口口口 |①---|
③口口③ |②---|
口④④口 |③---|
②②①① |④---|
25
口口口口 |①---|
③口口③ |②---|
口④④口 |③---|
②②①① |④---|
26
①口口② |①---|
口①②口 |②---|
④口口③ |③---|
口④③口 |④---|
27
口口口口 |①---|
口①②口 |②---|
口②①口
口口口口

③口④③
口④口口
口口口口 |③---|
口口口口 |④---|
28
④④③③ |--①-|
口口口口 |--②-|
②②①① |--③-|
口口口口 |--④-|
29
口口口口 |--①-|
④口口③ |--②-|
②②①① |--③-|
口口口口 |④---|
30
口①①口 |--①-|
口③③口 |--②-|
口②②口 |--③-|
口④④口 |--④-|
31
③口口③ |①---|
②口口① |②---|
②口口① |③---|
口④④口 |④---|
32
③③⑥⑥ |①-②-|
口⑤②口 |③---|
口①④口 |④-⑤-|
口口口口 |⑥---|
33
③③⑥⑥ |①-②-|
⑤口口② |③---|
口①④口 |④-⑤-|
口口口口 |⑥---|
34
④口口④ |①---|
口③③口 |②---|
②口口② |③---|
口①①口 |④---|
35
口口口口 |①---|
③口口② |----|
口口口口 |--②-|
口①①口 |③---|
36
口⑥③口 |①-②-|
口⑥③口 |③---|
口④⑤口 |④-⑤-|
口②①口 |⑥---|
37
⑥口口③ |①-②-|
⑥口口③ |③---|
口口口口 |④-⑤-|
②④①⑤ |⑥---|
38
口①③口 |①---|
口③①口 |②---|
口②④口 |③---|
口④②口 |④---|
39
②口口② |①---|
口口口口 |②---|
口③③口 |③---|
①③③① |----|
40
口①口口 |①-②-|
②口④口 |③-④-|
口③口口 |--⑤-|
口⑥⑤口 |⑥---|
41
口口①口 |①-②-|
口④口② |③-④-|
口口③口 |--⑤-|
口⑤⑥口 |⑥---|
42
口②③④ |①---|
②③④口 |②---|
①口口① |③---|
口口口口 |④---|
43
③口口③ |①---|
②口口① |②---|
口②①口 |③---|
④口口④ |④---|
44
口口①口 |①-②-|
口④口② |③-④-|
口口③口 |--⑤-|
口⑤⑥口 |⑥---|
45
口①口口 |①-②-|
②口④口 |③-④-|
口③口口 |--⑤-|
口⑥⑤口 |⑥---|
46
④③②口 |①---|
口④③② |②---|
①口口① |③---|
口口口口 |④---|
47
口③③口 |①---|
①口口② |②---|
口①②口 |③---|
口④④口 |④---|
48
④口④口 |①---|
①口口口 |--②-|
①口口② |③---|
口口③口 |④---|
49
口④口④ |①---|
①口口口 |--②-|
①口口② |③---|
口口③口 |④---|
50
④口④口 |①---|
①口口口 |--②-|
①口口② |③---|
口口③口 |④---|
51
口①口口 |①---|
口口②口 |②---|
口③口口 |③---|
口口④口 |④---|
52
口口口口 |①---|
①③①③ |②---|
口口口口 |③---|
口②④口 |④---|
53
①口①口 |①---|
口②口② |②---|
③口③口 |③---|
口④口④ |④---|
54
口口口口 |①---|
口②②口 |②---|
③口口① |③---|
口④④口 |④---|
55
口口口口 |①---|
①②②① |----|
口②②口 |②---|
口口口口 |----|
56
①口口① |①---|
口②②口 |----|
口②②口 |②---|
口口口口 |----|
57
①口口② |①-②-|
③口口④ |③-④-|
⑤口口⑥ |⑤-⑥-|
⑦口口⑧ |⑦-⑧-|
58
口③④口 |--①-|
口⑤②口 |②-③-|
口①⑥口 |④-⑤-|
口⑦口口 |⑥-⑦-|
59
口③③口 |①--②|
②③③① |--③-|
②口口① |----|
口④④口 |④---|
60
口③口① |①---|
②口②口 |②---|
口③口① |③---|
④口④口 |④---|
61
口口⑤口 |①-②-|
口⑥口④ |③---|
③口①口 |④-⑤-|
口②口口 |⑥---|
62
①口③① |①---|
口④口口 |②---|
口口⑤口 |③-④-|
②⑥口② |⑤-⑥-|
63
②口口② |①---|
②口口② |②---|
口口口口
口口①口

口口口口
口口口口
口口口口 |----|
口③③口 |③---|
64
④口口口 |①-②-|
口④口③ |③--④|
②口口① |----|
口口口口 |----|
65
③①③① |①---|
口④②口 |②---|
口口口口 |③---|
口④②口 |④---|
66
③口口③ |①---|
④口口④ |②---|
①②①② |--③-|
口口口口 |④---|
67
口口口口 |①---|
口①①口 |----|
口①①口 |----|
口口口口 |----|
68
口①②口 |①-②-|
口③④口 |③-④-|
口⑤⑥口 |⑤-⑥-|
口⑦⑧口 |⑦-⑧-|
69
⑦口口⑧ |①-②-|
⑤口口⑥ |③-④-|
③口口④ |⑤-⑥-|
①口口② |⑦-⑧-|
70
口①②口 |①-②-|
口③④口 |③-④-|
口⑤⑥口 |⑤-⑥-|
口⑦⑧口 |⑦-⑧-|
71
③①②④ |--①-|
①③④② |--②-|
口口口口 |--③-|
口口口口 |--④-|
72
③①②④ |--①-|
①口口② |--②-|
口口口口 |--③-|
口口口口 |④---|
73
口口口口 |①---|
②口口④ |②-③-|
①①①① |--④-|
⑤口口③ |⑤---|
74
口⑤⑤口 |①---|
②⑤⑤④ |②-③-|
①①①① |--④-|
口口口③ |⑤---|
75
口口口口 |----|
口口口口 |----|
①③口② |--①-|
①③口② |②-③-|
76
口口口口 |①---|
口口口口 |----|
②④①③ |--②-|
②④①③ |③-④-|
77
④口口② |①-②-|
口③①口 |③-④-|
口⑦⑤口 |⑤-⑥-|
口⑧⑥口 |⑦-⑧-|
78
④口口④ |①---|
③口口③ |②---|
②口口② |③---|
①口口① |④---|
79
口①②口 |①---|
口②①口 |--②-|
④口⑤③ |--③-|
④口⑤③ |④-⑤-|
80
口口口口 |①---|
口口口口 |----|
③①④② |--②-|
③①④② |③-④-|
81
②口口④ |①-②-|
口①③口 |③-④-|
口⑤⑦口 |⑤-⑥-|
口⑥⑧口 |⑦-⑧-|
82
口口③口 |①---|
①口口② |②---|
②口口① |③---|
口③口口 |----|
83
①口口口 |①---|
口①口口 |----|
口口①口 |----|
口口口① |----|

accuracy: 100%
最終更新:2022年05月25日 11:41