アットウィキロゴ
恋歌疾風!かるたクイーンいろは
ねこまんまチーム!

EXTREME

Level: 10.2
BPM: 120-168
Notes: 925

1
口口口口 |(120)----|
口口口口 |----|
口口口口 |----|
口口口口 |----|
2
口口口口 |--①-|
口⑤④口 |②-③-|
口④⑤③ |④---|
口①②口 |⑤---|
3
口②③口 |①-②-|
①⑥⑦④ |③-④-|
口⑦⑤口 |⑤-⑥-|
口口口口 |⑦---|
4
②口口④ |①---|
④口口② |②---|
①口口③ |③---|
③口口① |④---|
5
⑥口口⑤ |①-②-|
⑧③④⑦ |③-④-|
②口①口 |⑤-⑥-|
口①口口 |⑦-⑧-|
6
口口口口 |--①-|
口④⑥口 |②-③-|
③⑦⑤口 |④-⑤-|
口②①口 |⑥-⑦-|
7
口③②口 |①-②-|
④⑦⑥① |③-④-|
口⑤⑦口 |⑤-⑥-|
口口口口 |⑦---|
8
口口口口 |--①-|
口⑥④口 |②-③-|
口⑤⑦③ |④-⑤-|
口①②口 |⑥-⑦-|
9
口②③口 |①-②-|
①口口④ |③-④-|
口口⑤口 |⑤---|
口口口口 |----|
10
口口口口 |----|
口①②口 |(168)①-②-|
口②①口 |----|
口口口口 |----|
11
口口口口 |①---|
口口口口 |②---|
口口口口
②口口①
12
口⑥⑤口 |①-②-|
⑥④③⑤ |③④--|
②⑧⑦① |⑤-⑥-|
口②①口 |⑦⑧--|
13
口⑥⑤口 |①-②-|
⑥④③⑤ |③④--|
②⑧⑦① |⑤-⑥-|
口②①口 |⑦⑧--|
14
口⑥⑤口 |①-②-|
⑥④③⑤ |③④--|
②⑧⑦① |⑤-⑥-|
口②①口 |⑦⑧--|
15
⑥口口⑤ |①-②-|
⑧④③⑦ |③④--|
②⑨⑨① |⑤⑥⑦⑧|
口②①口 |⑨---|
16
⑥②④⑧ |①-②-|
⑥②④⑧ |③-④-|
口口口口 |⑤-⑥-|
①⑤⑦③ |⑦-⑧-|
17
⑥②④⑨ |①-②-|
⑥②④⑨ |③-④-|
口⑧口口 |⑤-⑥-|
①⑤⑦③ |⑦⑧⑨-|
18
⑤①③⑦ |①-②-|
口口口口 |③-④-|
②⑥⑧④ |⑤-⑥-|
④⑧⑥② |⑦-⑧-|
19
口①③口 |①-②-|
口口口口 |③-④-|
②口口④
④口口②

⑤⑧口⑧
口口⑦口
口⑥口口 |⑤-⑥⑦|
口口口口 |⑧---|
20
口口①口 |①-②-|
口口口③ |③-④-|
②口口⑤ |⑤---|
⑥④口口 |⑥---|
21
④口③口 |①-②-|
口⑥口⑤ |--③-|
口②⑦口 |④-⑤-|
口口口① |⑥-⑦-|
22
口②口④ |①---|
①口③口 |②---|
②口④口 |③---|
口①口③ |④---|
23
口口口口 |①-②-|
口②③⑥ |③-④-|
①④⑤⑦ |⑤-⑥⑦|
口口①⑧ |⑧---|
24
口①①② |①-②-|
④③③口 |③-④-|
口⑤⑤⑥ |⑤-⑥-|
⑧⑦⑦口 |⑦-⑧-|
25
①口①② |①-②-|
④③口③ |③-④-|
⑤口⑤⑥ |⑤-⑥-|
⑧⑦口⑦ |⑦-⑧-|
26
②⑥⑤③ |①-②-|
口⑤⑥① |③-④-|
口④口口 |⑤---|
口⑥⑤口 |⑥---|
27
④⑥⑥⑤ |①--②|
②口口② |③-④-|
⑤③③④ |⑤---|
①⑥⑥① |⑥---|
28
⑦口口⑥ |①-②-|
口⑤口③ |③④⑤-|
口⑩④⑧ |⑥-⑦-|
②口⑨① |⑧⑨⑩-|
29
⑦口口⑥ |①-②-|
口⑤口③ |③④⑤-|
口⑩④⑧ |⑥-⑦-|
②口⑨① |⑧⑨⑩-|
30
⑦②④⑤ |①-②-|
口④②口 |③-④-|
口⑧⑥口 |⑤-⑥-|
③⑥⑧① |⑦-⑧-|
31
⑨⑨⑦⑦ |①②③-|
①④①④ |④⑤⑥-|
②口口⑤ |⑦-⑧-|
③⑧⑩⑥ |⑨-⑩-|
32
⑦口口③ |①-②-|
①⑥②⑤ |③-④-|
②⑤①⑥ |⑤-⑥-|
⑧口口④ |⑦-⑧-|
33
⑦口口③ |①-②-|
①⑥②⑤ |③-④-|
②⑤①⑥ |⑤-⑥-|
⑧口口④ |⑦-⑧-|
34
④口口② |①---|
口口口口 |②---|
①④②③ |③---|
口③①口 |④---|
35
口⑦②⑦ |①-②-|
①③口① |③-④-|
口口④口 |⑤-⑥-|
⑥⑤⑥口 |⑦---|
36
③口口⑦ |①-②-|
⑥②⑥② |③-④-|
⑤①⑤① |⑤-⑥-|
④口口⑧ |⑦-⑧-|
37
③口口⑦ |①-②-|
⑥②⑥② |③-④-|
⑤①⑤① |⑤-⑥-|
④口口⑧ |⑦-⑧-|
38
①⑤①⑥ |①-②-|
⑤①⑤② |③-④-|
④③⑦③ |⑤-⑥-|
⑧⑦③⑦ |⑦-⑧-|
39
③口③口 |①-②-|
④①口① |③-④-|
口③口②
口口①口

口⑥口⑥
口口⑤口
口口口口 |⑤---|
⑥⑤⑥⑤ |⑥---|
40
④⑤②⑦ |①-②-|
口③口① |③-④-|
④③②① |⑤-⑥-|
⑦⑥口口 |⑦---|
41
④⑥②⑦ |①-②-|
口③口① |③-④-|
④③②① |⑤-⑥-|
⑦⑤口口 |⑦---|
42
口口①口 |①-②-|
④⑥⑤③ |③④⑤⑥|
口口口口
口口②口

口口⑪口
口口口口
⑧⑩⑨⑦ |⑦⑧⑨⑩|
口⑫口口 |⑪-⑫-|
43
②口口① |①②③④|
④口口③ |⑤-⑥-|
口口口⑤
⑥口口口

口口⑧口
口⑨⑦⑩
口口⑦口 |⑦-⑧-|
口⑩⑧⑨ |⑨-⑩-|
44
⑦②⑤④ |①-②-|
①口③口 |③-④-|
①②③④ |⑤-⑥-|
口口⑥⑦ |⑦---|
45
⑦②⑥④ |①-②-|
①口③口 |③-④-|
①②③④ |⑤-⑥-|
口口⑤⑦ |⑦---|
46
口①口口 |①-②-|
③⑤⑥④ |③④⑤⑥|
口口口口
口②口口

口⑪口口
口口口口
⑦⑨⑩⑧ |⑦⑧⑨⑩|
口口⑫口 |⑪-⑫-|
47
①口口③ |①②③④|
②口口④ |⑤⑥⑦⑧|
⑤口口⑦
⑥口口⑧

口口⑩⑫
口⑩⑬口
口⑪⑨口 |⑨-⑩-|
口⑨⑪口 |⑪-⑫⑬|
48
⑥①口⑥ |①---|
④口⑦③ |②-③-|
②④③⑤ |④-⑤-|
③口口④ |⑥-⑦-|
49
④①①④ |①---|
③⑤口② |--②-|
口③②口 |③---|
②口口③ |④-⑤-|
50
⑤①①⑤ |①-②-|
④口②③ |--③-|
口④③口 |④---|
③口口④ |⑤---|
51
口①③⑤ |①-②-|
⑦口①⑧ |③-④-|
口⑦⑧① |⑤-⑥-|
口②④⑥ |⑦-⑧-|
52
①口②口 |①-②-|
⑤①⑥口 |③-④-|
⑦⑤⑧④ |⑤-⑥-|
③⑦口口 |⑦-⑧-|
53
①口⑧② |①-②-|
③①⑦④ |③-④-|
⑤③⑧⑥ |⑤-⑥-|
口⑤⑦口 |⑦-⑧-|
54
口①口口 |①-②-|
③口口② |③-④-|
口①口口
口口口④

口⑧⑦口
口⑤⑥口
口⑧⑦口 |⑤-⑥-|
口⑤⑥口 |⑦-⑧-|
55
①口口③ |①②--|
①口口③ |----|
②口口④ |③④--|
②口口④ |----|
56
①口口④ |①②--|
①⑥③④ |③---|
②③⑥⑤ |④⑤--|
②口口⑤ |⑥---|
57
⑤⑨④⑯ |①②③④|
⑥⑩③⑮ |⑤⑥⑦⑧|
⑭②⑪⑦ |⑨⑩⑪⑫|
⑬①⑫⑧ |⑬⑭⑮⑯|
58
①口口口 |--①-|
④口②口 |②-③-|
⑥口口口 |④-⑤-|
口③⑤⑦ |⑥-⑦-|
59
③④①④ |①②-③|
口②⑤① |-④⑤-|
口④②④
口口口口

口口口口
⑥口口⑦
口口口口 |--⑥-|
⑧⑥⑦⑧ |⑦-⑧-|
60
①口①口 |①--②|
④⑥④⑥ |--③-|
③②③② |④-⑤-|
⑦⑤⑦⑤ |⑥-⑦-|
61
④③②① |①②③④|
⑤口⑥口 |⑤-⑥-|
⑦⑧⑨⑩ |⑦⑧⑨⑩|
口⑫口⑪ |⑪-⑫-|
62
③④⑤① |①②③④|
⑦⑧⑥② |⑤⑥⑦⑧|
⑩⑨⑩⑨ |⑨-⑩-|
⑪⑫⑪⑫ |⑪-⑫-|
63
③③②① |①-②-|
③③②① |③---|
⑥⑤⑤④ |--④-|
口④⑥口 |⑤-⑥-|
64
⑦口⑥⑤ |①②③④|
③④②① |⑤⑥-⑦|
口⑧⑨⑩ |--⑧-|
⑦⑧⑨⑩ |⑨-⑩-|
65
口④口⑤ |①②-③|
③⑩②① |④-⑤-|
⑥⑦⑧口 |⑥⑦⑧-|
口⑨口口 |⑨-⑩-|
66
口⑤⑥⑨ |①②-③|
④口③⑦ |④⑤⑥⑦|
⑩⑧口⑨ |--⑧-|
⑧⑩②① |⑨-⑩-|
67
②口⑦⑤ |①-②-|
④口①③ |③-④-|
⑥口⑦⑤ |⑤-⑥-|
⑧口①③ |⑦-⑧-|
68
②④⑧⑦ |①-②-|
⑨⑤①③ |③-④⑤|
口⑥⑦⑧ |⑥-⑦-|
口⑨①③ |⑧-⑨-|
69
③④⑩⑨ |①②③④|
⑮⑯②① |⑤⑥⑦⑧|
⑦⑧⑭⑬ |⑨⑩⑪⑫|
⑪⑫⑥⑤ |⑬⑭⑮⑯|
70
③④⑩⑨ |①②③④|
⑪⑫②① |⑤⑥⑦⑧|
⑦⑧⑩⑨ |⑨-⑩-|
⑪⑫⑥⑤ |⑪-⑫-|
71
④②⑥⑧ |①-②-|
口口口口 |③-④-|
②④⑧⑥ |⑤-⑥-|
⑤⑦③① |⑦-⑧-|
72
④②⑥⑦ |①-②-|
口口口口 |③-④-|
②④⑦⑥ |⑤-⑥-|
⑤⑦③① |⑦---|
73
③①口口 |①---|
口口②① |②-③-|
①②口口
口口①③

口⑤口④
口口口⑤
⑤口口口 |--④-|
④口⑤口 |⑤---|
74
④⑤①③ |①---|
①②口⑤ |②-③-|
⑤口②① |--④-|
③①⑤④ |⑤---|
75
口口④③ |①②-③|
口口口口 |④-⑤⑥|
口口②①
⑤⑥口口

口口口口
⑦口⑧⑨
口口⑨⑧ |--⑦-|
口口口⑦ |⑧-⑨-|
76
③④口口 |①②-③|
口口口口 |④-⑤⑥|
①②口口
口口⑥⑤

口口口口
⑨⑧口⑦
⑧⑨口口 |--⑦-|
⑦口口口 |⑧-⑨-|
77
口②④口 |①-②-|
口口口口 |③-④-|
口口口口
口①③口

口口口口
口口口⑥
口口⑦⑨ |⑤-⑥⑦|
口⑧口⑤ |⑧-⑨-|
78
②④口⑤ |①-②-|
②⑨④⑥ |③-④-|
①③⑧⑦ |⑤⑥⑦⑧|
①⑩③口 |⑨-⑩-|
79
③④口口 |①②-③|
口口口口 |④-⑤⑥|
①②口口
口口⑥⑤

口口口口
⑨⑧口⑦
⑧⑨口口 |--⑦-|
⑦口口口 |⑧-⑨-|
80
口口④③ |①②-③|
口口口口 |④-⑤⑥|
口口②①
⑤⑥口口

口口口口
⑦口⑧⑨
口口⑨⑧ |--⑦-|
口口口⑦ |⑧-⑨-|
81
口④②口 |①-②-|
口口口口 |③-④-|
口口口口
口③①口

口口口口
⑥口口口
⑨⑦口口 |⑤-⑥⑦|
⑤口⑧口 |⑧-⑨-|
82
④⑤口口 |①②③④|
口③⑥⑧ |⑤⑥⑦⑧|
口口②⑦
口口口①

口口⑨⑩
⑪口口口
口口口口 |⑨⑩-⑪|
口⑫口⑬ |-⑫-⑬|
83
口口口口 |①---|
口①口口 |----|
口口口口 |----|
①口①口 |----|

accuracy: 100%
最終更新:2022年05月25日 11:55