アットウィキロゴ
Do well
SIRUP

BASIC

Level: 2
BPM: 116
Notes: 156

1
口口口口 |----|
口口口口 |----|
口口口口 |----|
口口口口 |----|
2
口口口口 |①---|
口口口① |----|
口口口② |②---|
口口口口 |----|
3
口口口口 |①---|
口口①口 |----|
口口②口 |②---|
口口口口 |----|
4
口口口口 |①---|
口①口口 |----|
口②口口 |②---|
口口口口 |----|
5
口口口口 |①---|
①口口口 |----|
②口口口 |②---|
口口口口 |----|
6
口口口口 |①---|
口口口口 |----|
口口口口 |②---|
①②口口 |----|
7
口口口口 |①---|
口口口口 |----|
口口口口 |②---|
口口①② |----|
8
口口口口 |①---|
口口口口 |----|
口口②① |②---|
口口口口 |----|
9
口口口口 |①---|
口口口口 |----|
②①口口 |②---|
口口口口 |----|
10
口口口口 |①---|
①②口口 |----|
口口口口 |②---|
口口口口 |----|
11
口口口口 |①---|
口口①② |----|
口口口口 |②---|
口口口口 |----|
12
口口②① |①---|
口口口口 |----|
口口口口 |②---|
口口口口 |----|
13
②①口口 |①---|
口口口口 |----|
口口口口 |②---|
口口口口 |----|
14
口口口口 |①---|
①口口口 |②---|
口②口口 |③---|
口口③口 |----|
15
口口口口 |①---|
口口口① |②---|
口口②口 |③---|
口③口口 |----|
16
口口口口 |①---|
①口口口 |②---|
口②口口 |③---|
口口③口 |----|
17
口口口口 |①---|
口口口① |②---|
口口②口 |③---|
口③口口 |----|
18
口口口口 |①---|
①口口口 |②---|
口②口口 |③---|
口口③口 |----|
19
口口口口 |①---|
口口口① |②---|
口口②口 |③---|
口③口口 |----|
20
口口口口 |①---|
口①①口 |----|
口②②口 |②---|
口口口口 |----|
21
口口口口 |①---|
口口口口 |----|
口口口口 |----|
口①①口 |----|
22
口口口口 |①---|
口口②口 |②---|
口口①口
口口口口

口口口口
口口口口
口口③④ |③---|
口口口口 |④---|
23
口口口口 |①---|
口②口口 |②---|
口①口口
口口口口

口口口口
口口口口
④③口口 |③---|
口口口口 |④---|
24
口口口口 |①---|
口口②口 |②---|
口口①口
口口口口

口口口口
口口口口
口口③④ |③---|
口口口口 |④---|
25
口口口口 |①---|
口②口口 |②---|
口①口口
口口口口

口口口口
口口口口
④③口口 |③---|
口口口口 |④---|
26
①口口口 |①---|
口口口口 |----|
口口口口 |----|
口口口口 |----|
27
口①口口 |①---|
口口口口 |----|
口口口口 |----|
口口口口 |----|
28
口口①口 |①---|
口口口口 |----|
口口口口 |----|
口口口口 |----|
29
口口口① |①---|
口口口口 |----|
口口口口 |----|
口口口口 |----|
30
口口口口 |①---|
口口口① |----|
口口口口 |②---|
口口口② |----|
31
口口口口 |①---|
口口①口 |----|
口口口口 |②---|
口口②口 |----|
32
口口口口 |①---|
口①口口 |----|
口口口口 |②---|
口②口口 |----|
33
口口口口 |①---|
①口口口 |----|
口口口口 |②---|
②口口口 |----|
34
口口口口 |①---|
①口口口 |②---|
②口口口 |③---|
③口口口 |----|
35
口口口口 |①---|
口①口口 |②---|
口②口口 |③---|
口③口口 |----|
36
口口口口 |①---|
口口①口 |②---|
口口②口 |③---|
口口③口 |----|
37
口口口口 |①---|
口口口① |②---|
口口口② |③---|
口口口③ |----|
38
口口口① |①---|
口口口② |②---|
口口口③ |③---|
口口口④ |④---|
39
口口①口 |①---|
口口②口 |②---|
口口③口 |③---|
口口④口 |④---|
40
口①口口 |①---|
口②口口 |②---|
口③口口 |③---|
口④口口 |④---|
41
①口口口 |①---|
②口口口 |②---|
③口口口 |③---|
④口口口 |④---|
42
口口口口 |①---|
口口口口 |----|
口②②口 |②---|
口①①口 |----|
43
口口②口 |①---|
口口①口 |②---|
口口口口
口口口口

口口口口
口口③④
口口口口 |③---|
口口口口 |④---|
44
口②口口 |①---|
口①口口 |②---|
口口口口
口口口口

口口口口
④③口口
口口口口 |③---|
口口口口 |④---|
45
口口口口 |①---|
口口②口 |②---|
口口①口
口口口口

口口口口
口口口口
口口③④ |③---|
口口口口 |④---|
46
口口口口 |①---|
口②口口 |②---|
口①口口
口口口口

口口口口
口口口口
④③口口 |③---|
口口口口 |④---|
47
口口口口 |①---|
口口口口 |②---|
口口②口
口口①口

口口口口
口口口口
口口口口 |③---|
口口③④ |④---|
48
口口口口 |①---|
口口口口 |②---|
口②口口
口①口口

口口口口
口口口口
口口口口 |③---|
④③口口 |④---|
49
口口口口 |①---|
口口②口 |②---|
口口①口
口口口口

口口口口
口口口口
口口③④ |③---|
口口口口 |④---|
50
口口口口 |①---|
口②口口 |②---|
口①口口
口口口口

口口口口
口口口口
④③口口 |③---|
口口口口 |④---|
51
口口口口 |①---|
①口口口 |----|
②口口口 |②---|
口口口口 |----|
52
口口口口 |①---|
口①口口 |----|
口②口口 |②---|
口口口口 |----|
53
口口口口 |①---|
口口①口 |----|
口口②口 |②---|
口口口口 |----|
54
口口口口 |①---|
口口口① |----|
口口口② |②---|
口口口口 |----|
55
口口口口 |①---|
口口口① |----|
口口口② |②---|
口口口口 |----|
56
口口口口 |①---|
口口①口 |----|
口口②口 |②---|
口口口口 |----|
57
口口口口 |①---|
口①口口 |----|
口②口口 |②---|
口口口口 |----|
58
口口口口 |①---|
①口口口 |----|
②口口口 |②---|
口口口口 |----|

accuracy: 99.5%
最終更新:2024年09月08日 16:30