アットウィキロゴ
Do well
SIRUP

ADVANCED

Level: 6
BPM: 116
Notes: 426

1
口口口口 |----|
口口口口 |----|
口口口口 |----|
口口口口 |----|
2
口口口口 |①---|
口口口口 |②---|
口④③口 |③---|
口②①口 |④---|
3
④口口③ |①---|
②口口① |②---|
口口口口 |③---|
口口口口 |④---|
4
口②①口 |①---|
口④③口 |②---|
口口口口 |③---|
口口口口 |④---|
5
口口口口 |①---|
口口口口 |②---|
口②①口 |③---|
口④③口 |④---|
6
口①①口 |①---|
口口口② |②-③-|
口口④③ |----|
口口⑤口 |④-⑤-|
7
口口口口 |----|
①口口口 |①-②-|
②③口口 |----|
口④口口 |③-④-|
8
口④③口 |--①-|
口②①⑦ |②-③-|
口⑥⑤口 |④-⑤-|
口口口口 |⑥-⑦-|
9
⑤口⑥④ |①-②-|
①③②口 |③-④-|
口⑦⑦口 |⑤-⑥-|
口⑧⑧口 |⑦-⑧-|
10
口口口口 |----|
①口口口 |①-②-|
②③口口 |----|
口④口口 |③-④-|
11
口④③口 |----|
口③④口 |①-②-|
口口①口 |--③-|
口口②口 |-④--|
12
⑥口⑦⑤ |--①-|
口④③口 |②-③-|
口②①口 |④-⑤-|
口口口口 |⑥-⑦-|
13
口①口口 |①-②-|
口③②口 |③-④-|
口口④口
口口口口

⑤口口口
口口⑥口
⑦口口口 |⑤-⑥-|
口口⑧口 |⑦-⑧-|
14
①⑤⑤① |①-②-|
口②⑦口 |③-④-|
口口③口 |⑤---|
口⑥⑥④ |⑥-⑦-|
15
③④③④ |①-②-|
口口口口 |③-④-|
口①口口 |----|
②口口口 |----|
16
①②①② |①--②|
口口口口 |----|
③④③④ |③--④|
口口口口 |----|
17
⑤⑤④④ |①--②|
①②①② |----|
口③口口 |③-④-|
口口口口 |-⑤--|
18
⑦口口⑦ |①-②-|
口⑥⑤口 |③-④-|
口④③口 |⑤-⑥-|
口②①口 |⑦---|
19
②口口口 |①---|
②口①口 |--②-|
口①口② |----|
口口口② |----|
20
口⑤①口 |①-②-|
⑥口口② |③-④-|
⑦口口③ |⑤-⑥-|
口⑧④口 |⑦-⑧-|
21
口口口口 |①---|
口②①③ |②---|
口①②④ |--③-|
口口口⑤ |④-⑤-|
22
口④⑤口 |①-②-|
④口口⑤ |③---|
口②口③ |④---|
口①①口 |⑤---|
23
口⑤④口 |①-②-|
⑤口口④ |③---|
③口②口 |④---|
口①①口 |⑤---|
24
④口口⑤ |①-②-|
口④⑤口 |③---|
口②口③ |④---|
口①①口 |⑤---|
25
口口口口 |--①-|
口③口③ |②-③-|
口②口② |----|
口①口① |----|
26
口口口口 |①---|
③①②口 |---②|
口②①③ |----|
口口口口 |---③|
27
口口口口 |----|
口口口口 |----|
口口口口 |----|
口口口口 |----|
28
口口口口 |--①-|
口②口① |---②|
①口②口 |----|
口口口口 |----|
29
⑤④口口 |①--②|
口口①口 |--③-|
口口②口 |--④-|
口口③口 |⑤---|
30
④口口③ |①---|
②口口① |②---|
①口口② |③---|
③口口④ |④---|
31
口④③口 |①---|
口②①口 |②---|
口①②口 |③---|
口③④口 |④---|
32
④口口③ |①---|
②口口① |②---|
①口口② |③---|
③口口④ |④---|
33
口④③口 |①---|
口②①口 |②---|
口①②口 |③---|
口③④口 |④---|
34
②口口口 |①---|
口口①口 |②---|
①口②口
口口口口

④口③口
口口口口
口口口口 |③---|
③口④口 |④---|
35
口口口口 |①---|
口②口① |②---|
口①口口
口口口②

口④口③
口口口口
口口口口 |③---|
口③口④ |④---|
36
口口口口 |①---|
口②口① |②---|
口①口口
口口口②

口④口③
口口口口
口口口口 |③---|
口③口④ |④---|
37
②口口口 |①---|
口口①口 |②---|
①口②口
口口口口

④口③口
口口口口
口口口口 |③---|
③口④口 |④---|
38
口④④口 |①---|
③④④③ |②---|
②①①② |③---|
口口口口 |④---|
39
口口口口 |①---|
口④④口 |②---|
③④④③ |③---|
②①①② |④---|
40
口④④口 |①---|
③④④③ |②---|
②口口② |③---|
口①①口 |④---|
41
①口口① |①---|
②口口② |②---|
口③③口 |③---|
口④④口 |④---|
42
②口②口 |①---|
口口口口 |--②-|
①口①口 |----|
口口口口 |----|
43
口口口口 |①-②-|
口口口② |③-④-|
口③④口
口口①口

口⑤口口
⑤⑦⑥口
⑦口⑧口 |⑤-⑥-|
口口口口 |⑦-⑧-|
44
②口口口 |①-②-|
口口口口 |③-④-|
口①口口
口④③口

口口⑤口
口⑧⑦⑤
口⑥口⑦ |⑤-⑥-|
口口口口 |⑦-⑧-|
45
口口口口 |①-②-|
口口口② |③-④-|
口③④口
口口①口

⑤口口口
⑦⑤⑥口
口⑦口口 |⑤-⑥-|
口口⑧口 |⑦-⑧-|
46
④口口⑧ |①-②-|
口③⑦口 |③-④-|
②口口⑥ |⑤-⑥-|
口①⑤口 |⑦-⑧-|
47
口口口口 |①-②-|
口口口② |③-④-|
口③④口
口口①口

口⑤口口
⑤⑦⑥口
⑦口⑧口 |⑤-⑥-|
口口口口 |⑦-⑧-|
48
②口口口 |①-②-|
口口口口 |③-④-|
口①口口
口④③口

口口⑤口
口⑧⑦⑤
口⑥口⑦ |⑤-⑥-|
口口口口 |⑦-⑧-|
49
口口口口 |①-②-|
口口口② |③-④-|
口③④口
口口①口

⑤口口口
⑦⑤⑥口
口⑦口口 |⑤-⑥-|
口口⑧口 |⑦-⑧-|
50
④⑧④口 |①-②-|
③⑦③口 |③-④-|
②⑥②口 |⑤-⑥-|
口①⑤口 |⑦-⑧-|
51
⑥⑥③③ |①-②-|
口⑤②口 |③---|
口④①口 |④-⑤-|
口口口口 |⑥---|
52
口口口口 |①-②-|
⑥⑥③③ |③---|
口⑤②口 |④-⑤-|
口④①口 |⑥---|
53
⑥⑥③③ |①-②-|
口⑤②口 |③---|
口④①口 |④-⑤-|
口口口口 |⑥---|
54
口口口口 |①-②-|
⑥⑥③③ |③---|
口⑤②口 |④-⑤-|
口④①口 |⑥---|
55
口②①口 |①-②-|
口④③口 |③-④-|
口⑥⑤口 |⑤-⑥-|
口⑧⑦口 |⑦-⑧-|
56
⑧口口⑦ |①-②-|
⑥口口⑤ |③-④-|
④口口③ |⑤-⑥-|
②口口① |⑦-⑧-|
57
口②①口 |①-②-|
口④③口 |③-④-|
口⑥⑤口 |⑤-⑥-|
口⑧⑦口 |⑦-⑧-|
58
口⑧⑦口 |①-②-|
⑥⑧⑦⑤ |③-④-|
④口口③ |⑤-⑥-|
②口口① |⑦-⑧-|

accuracy: 99.5%
最終更新:2024年09月08日 16:30