アットウィキロゴ
Do well
SIRUP

EXTREME

Level: 8
BPM: 116
Notes: 593

1
口口口口 |----|
口口口口 |----|
口口口口 |----|
口口口口 |----|
2
②③③口 |--①-|
口①①口 |②--③|
口口口口
口口口口

口口口口
口⑥⑥⑤
口④④口 |--④-|
口口口口 |⑤--⑥|
3
口口口口 |--①-|
口口口口 |②---|
②口口③ |----|
口①①口 |③---|
4
②口口口 |--①-|
口③③口 |②--③|
口①①口
口口口口

口口口口
口口口口
口⑥口⑤ |--④-|
口④④口 |⑤-⑥-|
5
口①②③ |①---|
口口口口 |②--③|
②口④口 |--④-|
口⑤⑤口 |⑤---|
6
口口②① |----|
③④口① |①-②-|
③口口口 |----|
口口口口 |③-④-|
7
口口④口 |----|
③④口③ |①-②-|
口口②① |--③-|
口⑤⑤① |④-⑤-|
8
①②口④ |--①-|
口口③口 |②-③④|
口口口口
口口口口

⑥⑦⑦口
口⑤口口
口口⑧口 |-⑤⑥-|
口口口⑨ |⑦-⑧⑨|
9
口口口⑤ |-①②-|
口口④口 |③-④⑤|
口①口口
②③③口

⑦⑨⑧口
口⑥口口
口⑨⑧口 |-⑥⑦-|
口口口口 |⑧-⑨-|
10
口口口口 |----|
口口①① |①-②-|
③③口口 |----|
④④②② |③-④-|
11
④口口⑥ |----|
口③⑤口 |①-②-|
口口①① |--③④|
口口②② |-⑤⑥-|
12
口口口口 |----|
口口口口 |①-②-|
口②①口
口①②口

③④③④
口口口口
口口⑤口 |③--④|
口⑤口口 |--⑤-|
13
口口④口 |①--②|
①②①② |--③-|
⑦③⑤口 |④-⑤-|
口⑥③口 |⑥-⑦-|
14
口③口③ |①-②-|
口①④口 |③-④-|
口口②口
口口口口

口口口口
口⑧口口
口口⑦口 |⑤-⑥-|
口⑤⑥⑤ |⑦-⑧-|
15
④口口③ |①-②-|
④口口③ |③-④-|
①②口口
口口口口

口口口口
⑦⑥⑤口
口口口口 |--⑤-|
口口口口 |⑥-⑦-|
16
口口①口 |①-②③|
口④口口 |-④⑤⑥|
②⑤③口
口⑥口口

口⑩口口
⑧⑪⑦口
口⑫口口 |⑦-⑧⑨|
口口⑨口 |-⑩⑪⑫|
17
口④①口 |①-②③|
②⑤③口 |-④⑤⑥|
口⑥口口
口口口口

口口⑧⑦
⑧口⑨口
口口⑩⑧ |⑦-⑧-|
⑨口⑪口 |-⑨⑩⑪|
18
口口口口 |①-②-|
口③④② |③-④-|
口①口口
口口口口

⑤⑤⑦⑦
口口口口
⑦⑧⑥口 |⑤-⑥-|
口口⑤口 |⑦-⑧-|
19
②②口② |①---|
口①①口 |--②-|
口②②口
口①①口

口口口口
口口口口
口⑤口③ |--③-|
口口④口 |④-⑤-|
20
③④口① |①-②-|
③口②① |③-④-|
⑦口⑥⑤ |⑤-⑥-|
⑦⑧口⑤ |⑦-⑧-|
21
②口口① |①---|
口②①口 |②---|
②口口①
口口口口

⑤口口口
口④口口
口口③口 |--③-|
口口口口 |④-⑤-|
22
口②③口 |①-②③|
口④口口 |-④-⑤|
口①⑤①
口口①口

⑥口口⑦
口口口口
⑥口口⑦ |⑥---|
口口口口 |⑦---|
23
③口②口 |①-②③|
⑦口④⑥ |-④-⑤|
①⑤①口 |⑥---|
⑦①口⑥ |⑦---|
24
口口①口 |①-②③|
口①口① |-④-⑤|
口②⑤③
口④口口

⑥口口⑦
口口口口
⑥口口⑦ |⑥---|
口口口口 |⑦---|
25
⑤④③口 |--①-|
口③②① |②-③-|
③②口口 |--④-|
口①口口 |⑤---|
26
口口口口 |①-②-|
口②③口 |---③|
口①①口
口口口口

口口口④
口⑤口口
口口口口 |--④-|
口口口口 |---⑤|
27
①口口口 |--①-|
口口口口 |----|
口口口口 |----|
口口口口 |----|
28
口④④口 |--①-|
口①①口 |---②|
口②口口 |--③-|
③口口口 |④---|
29
口口口口 |①--②|
①口①口 |--③-|
口②口②
③口③口

⑤口口口
④⑥口口
口口口口 |--④-|
口口口口 |⑤--⑥|
30
口②口① |①-②③|
口口③① |-④⑤⑥|
口④③口
口⑥⑤口

⑨口⑨⑦
口⑧口口
口口口⑦ |⑦-⑧⑨|
口⑩口口 |---⑩|
31
口⑥⑤① |①-②③|
口④口① |-④⑤⑥|
口②口③
口口口③

⑨口口⑨
口口⑦口
口⑧口口 |⑦-⑧⑨|
口口⑦口 |----|
32
口③②口 |①-②③|
①口口口 |-④⑤⑥|
①口④口
口⑤⑥口

口⑨口⑨
⑦口⑧口
口口口口 |⑦-⑧⑨|
⑦⑩口口 |---⑩|
33
口⑥⑤③ |①-②③|
口④口③ |-④⑤⑥|
口②口①
口口口①

⑨口口⑨
口口⑦口
⑩⑧口口 |⑦-⑧⑨|
口口⑦口 |--⑩-|
34
口口⑥口 |--①②|
⑦②⑧① |③④⑤-|
⑨④⑩③ |⑥-⑦⑧|
口⑪⑤口 |⑨⑩⑪-|
35
③口口② |①-②③|
⑤①口④ |④⑤⑥⑦|
⑦口口⑥
口口口口

⑩⑧⑧口
口口⑨口
口口⑩口 |⑧--⑨|
口⑨口口 |--⑩-|
36
口口口⑥ |--①②|
⑦②⑧① |③④⑤-|
⑨④⑩③ |⑥-⑦⑧|
口⑪⑤口 |⑨⑩⑪-|
37
③口口② |①-②③|
⑤口口④ |④⑤⑥⑦|
⑦①口⑥
口口口口

⑩⑧⑧口
口⑩⑨口
口口⑩口 |⑧--⑨|
口⑨口口 |--⑩-|
38
口口①口 |--①②|
口⑥⑤口 |③④⑤⑥|
④②口口
口口③口

⑪⑧⑪口
口口口⑨
⑫⑩⑦口 |⑦⑧⑨⑩|
口口⑫口 |⑪-⑫-|
39
口口③口 |--①②|
④⑥⑤① |③④⑤⑥|
口②口口
口口口口

⑪⑫⑪⑫
口口口口
口⑩⑦口 |⑦⑧⑨⑩|
口⑧⑨口 |⑪-⑫-|
40
口⑪⑫口 |--①②|
⑧⑥⑤① |③④⑤⑥|
⑩②⑦⑪ |⑦⑧⑨⑩|
⑫④③⑨ |⑪-⑫-|
41
口口口口 |①--②|
口②口② |----|
口口口口
口①①口

④口口③
口④③口
口口口口 |--③-|
口口口口 |④---|
42
口口②口 |①-②-|
①口③① |③-④-|
④口④口
口口口口

⑦口⑦口
口口⑧口
口⑥口口 |⑤-⑥-|
口⑤口口 |⑦-⑧-|
43
口口口③ |①-②③|
口②口⑤ |-④-⑤|
④口口口
口①①①

⑥⑧⑥⑧
口⑨口口
口⑧⑦⑥ |⑥-⑦-|
口口口口 |⑧-⑨-|
44
③口口口 |①-②③|
⑤口②口 |-④-⑤|
口口口④
①①①口

口⑥口⑥
口⑦⑧口
⑥口⑨口 |⑥-⑦-|
口⑧口⑧ |⑧-⑨-|
45
口①①① |①-②③|
口口口③ |-④-⑤|
④②口口
口口⑤口

⑧口口⑧
口⑥⑥口
口⑧⑦口 |⑥-⑦-|
⑥⑨口口 |⑧-⑨-|
46
口口②口 |①-②-|
①口③① |③-④-|
④口④口
口口口口

⑦口⑦口
⑧口口口
口⑥口口 |⑤-⑥-|
口⑤口口 |⑦-⑧-|
47
口口口③ |①-②③|
口②口⑤ |-④-⑤|
④口口口
口①①①

⑥⑧⑥⑧
口⑨⑦口
口⑧口⑥ |⑥-⑦-|
口口口口 |⑧-⑨-|
48
③口口口 |①-②③|
口口②口 |-④-⑤|
口⑤④口
①①①口

口⑥口⑥
口⑦⑧口
⑥口口口 |⑥-⑦-|
口⑧⑨⑧ |⑧-⑨-|
49
口①①① |①-②③|
口口口口 |-④-⑤|
口②口③
口④⑤口

⑧⑨口⑧
口⑥⑥口
⑧口⑦口 |⑥-⑦-|
口口口口 |⑧-⑨-|
50
口口④口 |①-②-|
口④③② |③-④-|
④③②口
口②口①

口口口口
口口口口
口⑥⑤口 |--⑤-|
口⑥⑤口 |⑥---|
51
③口口① |①-②-|
口②②④ |③--④|
口口口④
口口口口

口⑤⑤⑦
⑥口口⑦
口口口口 |--⑤-|
口口口口 |⑥--⑦|
52
②口口口 |--①-|
口口口口 |②---|
④①①③ |③---|
口口口口 |④---|
53
③⑤⑤① |①-②-|
⑥口口④ |③--④|
口口口④ |--⑤-|
口②②口 |⑥---|
54
③⑥口① |①-②-|
⑥⑤口④ |③--④|
口②②④ |--⑤-|
口口⑤口 |⑥---|
55
③口口① |①-②-|
口②②④ |③--④|
口口口④
口口口口

口⑤⑤⑦
⑥口口⑦
口口口口 |--⑤-|
口口口口 |⑥--⑦|
56
②口口口 |--①-|
口口口口 |②---|
④①①③ |③---|
口口口口 |④---|
57
②口口① |①---|
口口口口 |②---|
口④③口 |③---|
口口口口 |④---|
58
口口口口 |①---|
②口口① |②---|
口口口口 |③---|
口④③口 |④---|

accuracy: 99.5%
最終更新:2024年09月08日 16:30