アットウィキロゴ
Pretender
Official髭男dism

BASIC

Level: 1
BPM: 92
Notes: 134

1
口口口口 |----|
口口口口 |----|
口口口口 |----|
口口口口 |----|
2
口口①口 |①---|
口口口口 |----|
口口口口 |----|
口口口口 |----|
3
口①口口 |①---|
口口口口 |----|
口口口口 |----|
口口口口 |----|
4
口口①① |①---|
口口口口 |----|
口口口口 |----|
口口口口 |----|
5
①①口口 |①---|
口口口口 |----|
口口口口 |----|
口口口口 |----|
6
口口口口 |①---|
口口①① |----|
口口口口 |----|
口口口口 |----|
7
口口口口 |①---|
①①口口 |----|
口口口口 |----|
口口口口 |----|
8
口口口口 |①---|
口口②口 |----|
口口①口 |②---|
口口口口 |----|
9
口②①口 |①---|
口口口口 |----|
口口口口 |②---|
口口口口 |----|
10
口口口口 |①---|
口①口口 |----|
口②口口 |②---|
口口口口 |----|
11
口口口口 |①---|
口口口口 |----|
口口口口 |②---|
口①②口 |----|
12
口口口② |①---|
口口口口 |----|
口口口① |②---|
口口口口 |----|
13
②口口口 |①---|
口口口口 |----|
①口口口 |②---|
口口口口 |----|
14
口口口口 |①---|
口②口口 |----|
口①口口 |②---|
口口口口 |----|
15
口①②口 |①---|
口口口口 |----|
口口口口 |②---|
口口口口 |----|
16
口口口口 |①---|
口口①口 |----|
口口②口 |②---|
口口口口 |----|
17
口口口口 |①---|
口口口口 |----|
口口口口 |②---|
口②①口 |----|
18
②口口口 |①---|
口口口口 |----|
①口口口 |②---|
口口口口 |----|
19
口口口② |①---|
口口口口 |----|
口口口① |②---|
口口口口 |----|
20
口口口口 |①---|
口①口口 |----|
口口口口 |----|
口口口口 |----|
21
口口口口 |①---|
口口①口 |----|
口口口口 |----|
口口口口 |----|
22
口③口口 |①---|
口②口口 |②---|
口①口口 |③---|
口口口口 |----|
23
口口③口 |①---|
口口②口 |②---|
口口①口 |③---|
口口口口 |----|
24
①口口口 |①---|
口口口口 |----|
②口口口 |②---|
口口口口 |----|
25
口口口① |①---|
口口口口 |----|
口口口② |②---|
口口口口 |----|
26
口③口口 |①---|
口②口口 |②---|
口①口口 |③---|
口口口口 |----|
27
口口③口 |①---|
口口②口 |②---|
口口①口 |③---|
口口口口 |----|
28
①②口口 |①---|
口口口口 |----|
口口口口 |②---|
口口口口 |----|
29
口口①② |①---|
口口口口 |----|
口口口口 |②---|
口口口口 |----|
30
口①②口 |①---|
口③④口 |②---|
口口口口 |③---|
口口口口 |④---|
31
口口口口 |①---|
口口口口 |②---|
口①②口 |③---|
口③④口 |④---|
32
口口口口 |①---|
②②④④ |②---|
①①③③ |③---|
口口口口 |④---|
33
口①①口 |①---|
口②②口 |②---|
口③③口 |③---|
口口口口 |----|
34
①口口① |①---|
②口口② |②---|
③口口③ |③---|
口口口口 |----|
35
口口口口 |①---|
口③③口 |②---|
口②②口 |③---|
口①①口 |----|
36
①口口口 |①---|
口②口口 |----|
口口口口 |②---|
口口口口 |----|
37
口口口口 |①---|
口口口口 |----|
口口①口 |②---|
口口口② |----|
38
口口口① |①---|
口口②口 |----|
口口口口 |②---|
口口口口 |----|
39
口口口口 |①---|
口口口口 |----|
口①口口 |②---|
②口口口 |----|
40
口口口口 |①---|
②②④④ |②---|
①①③③ |③---|
口口口口 |④---|
41
口①①口 |①---|
口②②口 |②---|
口③③口 |③---|
口口口口 |----|
42
①口口① |①---|
②口口② |②---|
③口口③ |③---|
口口口口 |----|
43
口口口口 |①---|
口③③口 |②---|
口②②口 |③---|
口①①口 |----|
44
①口口口 |①---|
口②口口 |----|
口口口口 |②---|
口口口口 |----|
45
口口口口 |①---|
口口口口 |----|
口口①口 |②---|
口口口② |----|
46
口口口① |①---|
口口②口 |----|
口口口口 |②---|
口口口口 |----|
47
口口口口 |①---|
口口口口 |----|
口①口口 |②---|
②口口口 |----|
48
口口口口 |①---|
口①①口 |----|
口口口口 |----|
口口口口 |----|

accuracy: 99.5%
最終更新:2024年08月11日 08:09