アットウィキロゴ
Pretender
Official髭男dism

ADVANCED

Level: 3
BPM: 92
Notes: 272

1
口口口口 |----|
口口口口 |----|
口口口口 |----|
口口口口 |----|
2
①口口口 |①---|
口口口② |②---|
③口口口 |③---|
口口口④ |④---|
3
口口口① |①---|
②口口口 |②---|
口口口③ |③---|
④口口口 |④---|
4
①①口口 |①---|
口口②② |②---|
③③口口 |③---|
口口④④ |④---|
5
口口①① |①---|
②②口口 |②---|
口口③③ |③---|
④④口口 |④---|
6
①①口口 |①---|
口口②② |②---|
③③口口 |③---|
口口④④ |④---|
7
口口①① |①---|
②②口口 |②---|
口口③③ |③---|
④④口口 |④---|
8
口口口④ |①---|
口口口③ |②---|
口口口② |③---|
口口口① |④---|
9
③①①口 |①---|
②口口口 |----|
口口口口 |②---|
口口口口 |③---|
10
口①①口 |①---|
口口③口 |----|
口②口口 |②---|
口口口口 |③---|
11
口口口口 |----|
口①口口 |①---|
口口②口 |②---|
口口口口 |----|
12
口口口口 |①---|
③口口口 |②---|
②口口口 |③---|
①口口口 |----|
13
口口口口 |①---|
口口口② |----|
口口③口 |②---|
口口口① |③---|
14
④口口口 |①---|
③口口口 |②---|
②口口口 |③---|
①口口口 |④---|
15
口①①③ |①---|
口口口② |----|
口口口口 |②---|
口口口口 |③---|
16
口①①口 |①---|
口③口口 |----|
口口②口 |②---|
口口口口 |③---|
17
口口口口 |----|
口口①口 |①---|
口②口口 |②---|
口口口口 |----|
18
③口口③ |①---|
口口②口 |②---|
口④①口 |③---|
口口口口 |④---|
19
口①①口 |①---|
口②②口 |----|
口口口口 |②---|
口口口口 |----|
20
口口口口 |①---|
口口口口 |----|
口①①口 |----|
口②③口 |②-③-|
21
口口口口 |----|
口口口口 |----|
口口口口 |----|
口口口口 |----|
22
①①口口 |①---|
②②口口 |②---|
③③口口 |③---|
口口口口 |----|
23
口口①① |①---|
口口②② |②---|
口口③③ |③---|
口口口口 |----|
24
口①①口 |①---|
口②②口 |②---|
口③③口 |③---|
口口口口 |----|
25
①口口① |①---|
②口口② |②---|
③口口③ |③---|
④口口④ |④---|
26
①①口口 |①---|
②②口口 |②---|
③③口口 |③---|
口口口口 |----|
27
口口①① |①---|
口口②② |②---|
口口③③ |③---|
口口口口 |----|
28
②口口② |①---|
③口口③ |----|
口口口口 |②---|
口①①口 |③---|
29
②口口② |①---|
④①①口 |②---|
口③③口 |③---|
口口口口 |④---|
30
口①①口 |①---|
口口②口 |②---|
口③口口 |③---|
口口④口 |④---|
31
⑤⑤④④ |①---|
口③口口 |②---|
口口②口 |③---|
口①口口 |④-⑤-|
32
口口口口 |--①-|
⑥⑥③③ |②-③-|
⑤⑤②② |--④-|
④④①① |⑤-⑥-|
33
口①①口 |①---|
③口口③ |②---|
口②②口 |③---|
口口口口 |----|
34
①口口① |①---|
口③③口 |②---|
②口口② |③---|
口口口口 |----|
35
口口口口 |①---|
①口口① |②---|
口③③口 |③---|
②口口② |----|
36
口口口⑥ |①---|
⑤口①口 |--②-|
口口②④ |③-④-|
③口口口 |⑤-⑥-|
37
口口口⑦ |--①-|
⑥口③口 |②-③-|
口②口⑤ |④-⑤-|
④口①口 |⑥-⑦-|
38
口①①口 |①---|
口②②口 |②---|
口③③口 |③---|
口④④口 |④---|
39
①口口① |①---|
②口口② |②---|
口口口口
口口口口

⑤⑤④④
口口口口
③口口③ |③---|
口口口口 |④-⑤-|
40
口口口口 |--①-|
⑥⑥③③ |②-③-|
⑤⑤②② |--④-|
④④①① |⑤-⑥-|
41
口①①口 |①---|
③口口③ |②---|
口②②口 |③---|
口口口口 |----|
42
①口口① |①---|
口③③口 |②---|
②口口② |③---|
口口口口 |----|
43
口口口口 |①---|
①口口① |②---|
口③③口 |③---|
②口口② |----|
44
口口口⑥ |①---|
⑤口①口 |--②-|
口口②④ |③-④-|
③口口口 |⑤-⑥-|
45
口口口⑦ |--①-|
⑥口③口 |②-③-|
口②口⑤ |④-⑤-|
④口①口 |⑥-⑦-|
46
口①①口 |①---|
口②②口 |②---|
口③③口 |③---|
口④④口 |④---|
47
①口口① |①---|
口口口口 |----|
口③③口 |②---|
口②②口 |③---|
48
①①①① |①---|
口口口口 |----|
口口口口 |----|
口口口口 |----|

accuracy: 99.5%
最終更新:2024年08月11日 08:09