アットウィキロゴ
Pretender
Official髭男dism

EXTREME

Level: 8
BPM: 92
Notes: 562

1
口口口口 |----|
口口口口 |----|
口口口口 |----|
口口口口 |----|
2
口②⑥④ |①②③④|
①口③口 |--⑤⑥|
口⑤口口
口口口口

口口口口
口口口口
口⑫⑧⑩ |-⑦⑧⑨|
⑬⑨⑪⑦ |⑩⑪⑫⑬|
3
口②⑥④ |①②③④|
①口③口 |--⑤⑥|
口⑤口口
口口口口

口口口口
口口口口
口⑫⑧⑩ |-⑦⑧⑨|
⑬⑨⑪⑦ |⑩⑪⑫⑬|
4
口②⑥④ |①②③④|
①口③① |--⑤⑥|
口⑤口口
口口口口

口口口口
口口口口
口⑫⑧⑩ |-⑦⑧⑨|
⑬⑨⑪⑦ |⑩⑪⑫⑬|
5
口②⑥④ |①②③④|
①口③① |--⑤⑥|
口⑤口口
口口口口

口口口口
⑦口口口
口⑬⑨⑪ |⑦⑧⑨⑩|
⑭⑩⑫⑧ |⑪⑫⑬⑭|
6
口②⑥④ |①②③④|
①口③① |--⑤⑥|
口⑤口口
口口口口

口口口口
口口口口
口⑫⑧⑩ |-⑦⑧⑨|
⑬⑨⑪⑦ |⑩⑪⑫⑬|
7
口②⑥④ |①②③④|
①口③① |--⑤⑥|
口⑤口口
口口口口

口口口口
口口口口
口⑫⑧⑩ |-⑦⑧⑨|
⑬⑨⑪⑦ |⑩⑪⑫⑬|
8
口口口① |①-②-|
口口口④ |③-④-|
口口③口
口口口②

⑧⑧⑤⑥
口口口口
口⑦口口 |⑤-⑥-|
口口口口 |⑦-⑧-|
9
口⑦⑧⑧ |--①-|
⑥②③④ |-②③④|
口⑤口口 |⑤-⑥-|
①①口口 |⑦-⑧-|
10
⑧⑦口口 |--①-|
⑥②口口 |--②③|
口⑤③口 |--④⑤|
④口①① |⑥⑦⑧-|
11
口口④① |---①|
口口口③ |②③④⑤|
⑥口②⑤ |-⑥--|
口口口口 |----|
12
⑦②②⑨ |①-②-|
口③⑥口 |③④⑤⑥|
口⑤④口 |⑦-⑧-|
⑧①①口 |---⑨|
13
口③口口 |-①②-|
口①口口 |--③④|
口口②口
口口④口

⑨⑨口口
⑦⑦⑤⑧
⑥⑥口口 |-⑤⑥-|
口口口口 |⑦⑧⑨-|
14
⑦⑦④⑤ |--①-|
口口口③ |②-③-|
口⑥②口 |④-⑤-|
口口口① |⑥-⑦-|
15
口⑦⑧⑧ |--①-|
⑥②③④ |-②③④|
口⑤口口 |⑤-⑥-|
①①口口 |⑦-⑧-|
16
口⑧口口 |--①-|
⑦②口④ |--②③|
口⑥③口 |-④⑤⑥|
⑤口①① |⑦⑧--|
17
口口④① |---①|
口⑦口③ |②③④⑤|
⑥口②⑤ |-⑥⑦-|
口口口口 |----|
18
①②口口 |①②-③|
⑤⑤口口 |④-⑤⑥|
口⑥口口
口口④③

⑩⑨⑨口
⑩⑪⑦⑦
口口⑧口 |-⑦⑧-|
口口口口 |⑨-⑩⑪|
19
口口口① |-①②-|
⑤口②① |-③④⑤|
口④口口
③口口口

口口⑧⑥
口⑨口口
口口⑩口 |⑥-⑦-|
口⑦⑦口 |⑧⑨⑩-|
20
①①口口 |①--②|
口③④口 |----|
口③④口 |----|
口口②② |③-④-|
21
口口口口 |----|
口口口口 |----|
口口口口 |----|
口口口口 |----|
22
①⑤⑥① |①-②③|
⑤③④⑧ |④-⑤-|
⑥⑩⑦口 |⑥⑦⑧-|
②⑧⑨② |⑨-⑩-|
23
①口⑤① |①-②③|
口④③⑤ |④-⑤-|
口口口口
②口口②

口⑥口口
⑧口⑩口
口⑦口⑥ |⑥⑦⑧-|
⑪⑨⑧口 |⑨-⑩⑪|
24
①①口口 |①-②③|
④口口② |--④⑤|
口⑤③口
口④口口

口口⑥口
口口⑦口
口口⑨⑥ |⑥⑦--|
⑧口口口 |⑧-⑨-|
25
①①②② |①-②-|
①口口② |③-④-|
④口口③
④④③③

口⑦⑦口
口口⑤口
口⑥口口 |⑤⑥-⑦|
口口口口 |----|
26
口⑤口① |①-②③|
⑤④④口 |④-⑤-|
口④口口
②口口③

口口⑥口
口口口⑧
⑥⑩⑦口 |⑥⑦⑧-|
口⑧⑨口 |⑨-⑩-|
27
①口口① |①-②③|
口口③口
口口口口
②口口②

口⑦⑤⑥
⑧④⑩⑤ |④-⑤⑥|
口口口⑦ |⑦-⑧-|
口⑨⑧口 |⑨-⑩-|
28
口口口口 |①②③-|
口①口③
口①②③
口口②口

口口⑨⑨
口⑤⑤口 |--④⑤|
口⑦⑦口 |--⑥⑦|
④⑧口⑥ |--⑧⑨|
29
③②口口 |--①-|
②③口口 |②--③|
口⑤口口 |----|
④口①口 |④-⑤-|
30
口②①口 |①-②-|
口口口③ |--③-|
②口口①
口口③口

⑥口口口
④口⑦口
口⑦口口 |④-⑤-|
口④口⑤ |⑥-⑦-|
31
④④③③ |-①②-|
口①口口 |----|
口口口口 |----|
③④②口 |③-④-|
32
口口口③ |--①-|
口口③② |②-③-|
口口②①
口口①口

⑦口口口
⑤⑦口⑥
④⑤口口 |--④-|
口④口⑧ |⑤⑥⑦⑧|
33
口①①口 |①--②|
③口口③ |③--④|
口口口口
口②④口

⑤口口口
口⑤⑥口
⑦口⑧⑥ |⑤⑥⑦-|
⑨⑦口口 |⑧--⑨|
34
口①①口 |①--②|
③口口③ |③--④|
口口口口
④口②口

口口口⑤
口⑥⑤口
⑥⑧口⑦ |⑤⑥⑦-|
口口⑦⑨ |⑧--⑨|
35
口口口口 |①--②|
③①①③ |③--④|
口口口口
口②口④

⑤口口口
口⑤⑥口
⑦口口⑥ |⑤⑥⑦-|
口⑦口口

口⑩口口
口口口口
口⑧⑨口
口口口口 |⑧-⑨⑩|
36
⑤④③② |----|
⑥①口口 |①-②-|
口口口⑥ |③-④-|
②③④⑤ |⑤-⑥-|
37
③口口口 |--①-|
口①②口 |②-③-|
口②①口
口口口③

口口口④
⑤口口口
口口口⑤ |④-⑤-|
④口口口

口⑧口⑧
口口⑥口
口⑥口口
口口⑦口 |⑥-⑦⑧|
38
口口口口 |--①②|
口③④③ |--③④|
①②①口
口口口口

口口口口
口口口口
⑤⑥⑤口 |--⑤⑥|
口⑦口口 |---⑦|
39
①口①口 |①-②③|
④⑤④口 |--④⑤|
口②③②
口口口口

⑨⑨⑧⑧
口口口口
口⑥⑦⑥ |-⑥⑦-|
⑧⑨口口 |⑧-⑨-|
40
⑥口口③ |--①-|
⑤⑥③② |②-③-|
④⑤②① |--④-|
口④①口 |⑤-⑥-|
41
口①①口 |①--②|
③口口③ |③--④|
口口口口
口②④口

⑤口口口
口⑤⑥口
⑦口⑧⑥ |⑤⑥⑦-|
⑨⑦口口 |⑧--⑨|
42
口①①口 |①--②|
③口口③ |③--④|
口口口口
④口②口

口口口⑤
口⑥⑤口
⑥⑧口⑦ |⑤⑥⑦-|
口口⑦⑨ |⑧--⑨|
43
口口口口 |①--②|
③①①③ |③--④|
口口口口
口②口④

⑤口口口
口⑤⑥口
⑦口口⑥ |⑤⑥⑦-|
口⑦口口

口⑩口口
口口口口
口⑧⑨口
口口口口 |⑧-⑨⑩|
44
⑤④③② |----|
⑥①口口 |①-②-|
口口口⑥ |③-④-|
②③④⑤ |⑤-⑥-|
45
③口口口 |--①-|
口①②口 |②-③-|
口②①口
口口口③

口口口④
⑤口⑥口
口⑥口⑤ |④-⑤-|
④口⑦口 |⑥-⑦-|
46
①①①① |①-②③|
③⑤⑤③ |--④⑤|
口口口口
口②④口

口⑧⑨⑦
口口口口
⑧口口⑨ |--⑥⑦|
⑥口口口 |-⑧⑨-|
47
⑤①⑥④ |----|
⑦口②⑦ |--①②|
⑦③口⑦ |③-④-|
④⑥口⑤ |⑤⑥⑦-|
48
口口口口 |①---|
口①①口 |----|
口①①口 |----|
口口口口 |----|

accuracy: 99.5%
最終更新:2024年08月11日 08:10