アットウィキロゴ
マリーゴールド
あいみょん

BASIC

Level: 1
BPM: 106
Notes: 118

1
口口口口 |----|
口口口口 |----|
口口口口 |----|
口口口口 |----|
2
口口口口 |----|
口口口口 |----|
口口口口 |----|
口口口口 |----|
3
口口口口 |----|
口口口口 |----|
口口口口 |----|
口口口口 |----|
4
口口口口 |①---|
①②口口 |----|
口口口口 |②---|
口口口口 |----|
5
口口口口 |①---|
口口口口 |----|
口①①口 |----|
口口口口 |----|
6
口口口口 |①---|
口口②① |----|
口口口口 |②---|
口口口口 |----|
7
口口口口 |①---|
口口口口 |----|
口①①口 |②---|
口②②口 |----|
8
口口口口 |①---|
口口②口 |----|
口口①口 |②---|
口口口口 |----|
9
口口口口 |①---|
口②口口 |----|
口①口口 |②---|
口口口口 |----|
10
口①②口 |①---|
口口口口 |----|
口口口口 |②---|
口口口口 |----|
11
口口口口 |①---|
口①②口 |----|
口口口口 |②---|
口口口口 |----|
12
口口口口 |①---|
口口口口 |----|
口①②口 |②---|
口口口口 |----|
13
口口口口 |①---|
口口口口 |----|
口口口口 |②---|
口①②口 |----|
14
口口口口 |①---|
口口口口 |----|
口①①口 |----|
口口口口 |----|
15
口口口口 |①---|
口口口口 |----|
①口口① |----|
口口口口 |----|
16
口口口口 |①---|
口①②口 |----|
口口口口 |②---|
口口口口 |----|
17
①口口① |①---|
②口口② |----|
口口口口 |②---|
口口口口 |----|
18
口②①口 |①---|
口口口口 |----|
口口口口 |②---|
口口口口 |----|
19
口口口口 |①---|
口②①口 |----|
口口口口 |②---|
口口口口 |----|
20
口口口口 |①---|
口口口口 |----|
口②①口 |②---|
口口口口 |----|
21
口口口口 |①---|
口口口口 |----|
口口口口 |②---|
口②①口 |----|
22
口口口口 |①---|
口口口口 |----|
口①①口 |----|
口口口口 |----|
23
口口口口 |①---|
口口口口 |----|
①口口① |----|
口口口口 |----|
24
口口口口 |①---|
口②①口 |----|
口口口口 |②---|
口口口口 |----|
25
①口口① |①---|
②口口② |----|
口口口口 |②---|
口口口口 |----|
26
口口口口 |①---|
口①口口 |----|
口口②口 |②---|
口口口口 |----|
27
口口口口 |①---|
口口①口 |----|
口②口口 |②---|
口口口口 |----|
28
口口口口 |①---|
口①①口 |----|
口②②口 |②---|
口口口口 |----|
29
口口口口 |①---|
口口口口 |----|
②口口② |②---|
口①①口 |----|
30
口口口口 |①---|
①①②② |----|
口口口口 |②---|
口口口口 |----|
31
口①①口 |①---|
口②②口 |----|
口口口口 |②---|
口口口口 |----|
32
口口口口 |①---|
口口口① |----|
口口②口 |②---|
口口口口 |----|
33
口口口口 |①---|
②口口口 |----|
口①口口 |②---|
口口口口 |----|
34
口①①口 |①---|
口口口口 |----|
口②②口 |②---|
口口口口 |----|
35
①口口① |①---|
口口口口 |----|
②口口② |②---|
口口口口 |----|
36
口口口口 |①---|
①②③口 |②---|
口口口口 |③---|
口口口口 |----|
37
口③②① |①---|
口口口口 |②---|
口口口口 |③---|
口口口口 |----|
38
口口口口 |①---|
②②①① |----|
口口口口 |②---|
口口口口 |----|
39
口①①口 |①---|
口②②口 |----|
口口口口 |②---|
口口口口 |----|
40
口口口口 |①---|
①口口口 |----|
口②口口 |②---|
口口口口 |----|
41
口口口口 |①---|
口口口② |----|
口口①口 |②---|
口口口口 |----|
42
口①①口 |①---|
口口口口 |----|
口②②口 |②---|
口口口口 |----|
43
①口口① |①---|
口口口口 |----|
②口口② |②---|
口口口口 |----|
44
口口口口 |①---|
口口②① |②---|
口③口口 |③---|
口口口口 |----|
45
口口口口 |①---|
①②口口 |②---|
口口③口 |③---|
口口口口 |----|
46
口口口口 |①---|
①①①① |----|
口口口口 |----|
口口口口 |----|
47
口口口口 |----|
口口口口 |----|
口口口口 |----|
口口口口 |----|

accuracy: 99.5%
最終更新:2024年09月08日 17:34