アットウィキロゴ
マリーゴールド
あいみょん

ADVANCED

Level: 5
BPM: 106
Notes: 273

1
口口口口 |----|
口口口口 |----|
口口口口 |----|
口口口口 |----|
2
口口口口 |----|
口口口口 |----|
口口口口 |----|
口口口口 |----|
3
口口口口 |----|
口口口口 |----|
口口口口 |----|
口口口口 |----|
4
口口口口 |①---|
①口口② |②---|
③口口口 |③---|
口④④口 |④---|
5
口口口口 |①---|
②口口① |②---|
口口口③ |③---|
口④④口 |④---|
6
口口口口 |①---|
①口口② |②---|
③口口口 |③---|
口④④口 |④---|
7
口①①口 |①---|
口口口口 |--②-|
口③②口 |--③-|
口③②口 |----|
8
口④④口 |①---|
①口口① |②---|
③口口③ |③---|
口②②口 |④---|
9
口口口① |①---|
口口②口 |②---|
口③口口 |③---|
④口口口 |④---|
10
口⑥⑤口 |--①-|
口④③口 |②-③-|
口②①口 |④-⑤-|
口口口口 |⑥---|
11
口口口口 |①---|
口口口口 |----|
②口①② |----|
口①口口 |②---|
12
口②③口 |①---|
①④⑤① |②-③-|
口⑥口口 |④-⑤-|
口口口口 |⑥---|
13
口口口口 |①---|
口口口口 |----|
口口口口 |----|
口①①口 |----|
14
口③③口 |①---|
口口②② |--②-|
①口口口 |--③-|
①口口口 |----|
15
口③③口 |①---|
②②口口 |--②-|
口口口① |--③-|
口口口① |----|
16
④③③口 |①---|
口②②口 |--②-|
口口口口 |--③-|
口①①口 |--④-|
17
口口口① |①---|
口口口口 |--②-|
口②口口 |----|
口口②口 |----|
18
口⑤⑥口 |--①-|
口③④口 |②-③-|
口①②口 |④-⑤-|
口口口口 |⑥---|
19
口口口口 |①---|
口口口口 |----|
②①口② |----|
口口①口 |②---|
20
②口口② |①---|
①④③① |②---|
口口⑤口 |③-④-|
口口口口 |⑤---|
21
口口口口 |①---|
口口口口 |----|
口口口口 |----|
口①①口 |----|
22
口③③口 |①---|
②②口口 |--②-|
口口口① |--③-|
口口口① |----|
23
口③③口 |①---|
口口②② |--②-|
①口口口 |--③-|
①口口口 |----|
24
口③③④ |①---|
口②②口 |--②-|
口口口口 |--③-|
口①①口 |--④-|
25
①口口口 |①---|
口口口口 |--②-|
口③②口 |③---|
口②③口 |----|
26
口②口③ |①---|
口②④① |②---|
口⑤口① |③-④-|
口口口口 |⑤---|
27
③口②口 |①---|
①④②口 |②---|
①口⑤口 |③-④-|
口口口口 |⑤---|
28
①口口① |①---|
口口口口 |----|
②③③② |②---|
口口口口 |③---|
29
③口口③ |①---|
①①①① |----|
口口口口 |②---|
口②②口 |③---|
30
口口口口 |①---|
②口口⑤ |----|
口③④口 |②-③-|
口①①口 |④-⑤-|
31
口①①口 |①---|
口①①口 |--②-|
口口口口
口②口口

口口口口
口⑥⑤口
口口口④ |③-④-|
口口③口 |⑤-⑥-|
32
口口口口 |①-②-|
②口口口 |③-④-|
①③④口
口口口口

口⑦⑥口
⑧口口⑤
口口口口 |⑤-⑥-|
口口口口 |⑦-⑧-|
33
①④口口 |①---|
口口口口 |--②-|
口口②② |③---|
③③口口 |--④-|
34
口口口口 |①-②-|
口②①口 |③-④-|
口④③口
口口口口

口口口口
⑤⑥⑦⑧
口口口口 |⑤-⑥-|
口口口口 |⑦-⑧-|
35
④③②① |①-②-|
口⑤⑤口 |③-④-|
口口口口 |⑤---|
口口口口 |----|
36
口口口口 |①---|
③④②① |②---|
④③①② |③---|
口口口口 |④---|
37
口①②口 |①---|
口②①口 |②---|
口④③口 |③---|
口③④口 |④---|
38
①口口① |①---|
⑥口口③ |②---|
口⑤④口 |③-④-|
口②②口 |⑤-⑥-|
39
口①①口 |①---|
口①①口 |--②-|
口口口口
口口②口

口口口口
口⑤⑥口
④口口口 |③-④-|
口③口口 |⑤-⑥-|
40
口口口口 |①-②-|
口口口② |③-④-|
口④③①
口口口口

口⑥⑦口
⑤口口⑧
口口口口 |⑤-⑥-|
口口口口 |⑦-⑧-|
41
口口④① |①---|
口口口口 |--②-|
②②口口 |③---|
口口③③ |--④-|
42
口口口口 |①-②-|
口①②口 |③-④-|
口③④口
口口口口

口口口口
⑧⑦⑥⑤
口口口口 |⑤-⑥-|
口口口口 |⑦-⑧-|
43
①②③④ |①-②-|
口⑤⑤口 |③-④-|
口口口口 |⑤---|
口口口口 |----|
44
口口口口 |①---|
①③③② |②---|
②③③① |③---|
口口口口 |----|
45
口口口口 |①---|
②口口① |②---|
①口口②
口口口口

口口口口
④③③④
④③③④ |③---|
口口口口 |④---|
46
①①①① |①---|
口口口口 |----|
口口口口 |----|
口口口口 |----|
47
口口口口 |----|
口口口口 |----|
口口口口 |----|
口口口口 |----|

accuracy: 99.5%
最終更新:2024年09月08日 17:34