アットウィキロゴ
マリーゴールド
あいみょん

EXTREME

Level: 7
BPM: 106
Notes: 469

1
口口口口 |----|
口口口口 |----|
口口口口 |----|
口口口口 |----|
2
口口口口 |----|
口口口口 |----|
口口口口 |----|
口口口口 |----|
3
①口①口 |----|
口口口口 |----|
口口口口 |----|
口口口口 |①---|
4
口口口口 |①---|
口口②口 |②---|
口②口口
①口①口

口口口口
③口④口
口⑤口口 |--③-|
口口口口 |④-⑤-|
5
口③口③ |①---|
口②口口 |②---|
口口②① |----|
口口口口 |③---|
6
口口⑤口 |①---|
口④②③ |②---|
口②口口 |--③-|
口①口① |④-⑤-|
7
①口口口 |①---|
口④⑤口 |--②-|
②⑥口③ |--③-|
②口口③ |④⑤⑥-|
8
⑤口口口 |①---|
②④口② |②---|
口口③口 |③-④-|
口①①口 |⑤---|
9
口口口③ |①-②-|
口口②口 |③---|
口①口口
口口口口

口④⑤口
口⑥口口
口⑧⑦口 |④⑤⑥-|
口口⑨口 |⑦⑧⑨-|
10
口口②口 |①-②-|
①口口① |③④-⑤|
⑤口④口
口③口口

⑦口⑨⑧
口⑨口⑥
口口口口 |-⑥-⑦|
口口口口 |-⑧-⑨|
11
⑤口口口 |-①-②|
⑤口口口 |----|
②③④① |----|
口②①口 |③④-⑤|
12
口口口① |----|
口⑥③① |①-②③|
口②口⑤ |--④-|
口④口口 |⑤-⑥-|
13
口口口口 |①-②-|
口口口口 |----|
①口①口
口②口②

口口口口
③口口④
口⑤⑤口 |③-④-|
口口口口 |⑤---|
14
①③③② |①---|
口②①口 |--②-|
口④④口 |--③-|
口口口口 |--④-|
15
①口口③ |①---|
口①③口 |--②-|
口口口口 |--③-|
④②②④ |--④-|
16
口口口口 |①---|
①口口② |--②-|
口②①口
口口口口

口③③口
口口口口
口④④口 |--③-|
口口口口 |--④-|
17
①口口① |①---|
口①①口 |--②-|
②口口②
口②②口

口口口口
口口口口
口③④口 |----|
口⑤口口 |③④⑤-|
18
口②口口 |①-②-|
①口口① |③④-⑤|
口④口⑤
口口③口

⑧⑨口⑦
⑥口⑨口
口口口口 |-⑥-⑦|
口口口口 |-⑧-⑨|
19
口口口口 |-①-②|
口口口口 |----|
①口口②
口①②口

口口口口
口口口口
④④③③ |----|
口口口口 |③-④-|
20
④④③③ |①-②-|
②②①① |③-④-|
口口口口
口口口口

口口口口
⑧口⑤⑤
口口⑦口 |⑤-⑥⑦|
口⑥口口 |--⑧-|
21
口口口口 |①-②-|
口口口口 |----|
口①口①
②口②口

口口口口
④口口③
口⑤⑤口 |③-④-|
口口口口 |⑤---|
22
②③③① |①---|
口①②口 |--②-|
口④④口 |--③-|
口口口口 |--④-|
23
③口口① |①---|
口③①口 |--②-|
口口口口 |--③-|
④②②④ |--④-|
24
口口口口 |①---|
②口口① |--②-|
口①②口
口口口口

口③③口
口④口口
口口④口 |--③-|
口口口口 |--④-|
25
②口口口 |①---|
口口①口 |--②-|
口①口口
口口口②

口口口③
口口口口
口⑤④口 |③---|
③口⑥口 |④⑤⑥-|
26
口口口口 |①-②-|
①①③③ |③-④-|
口口口口
②②④④

口口口口
口口口口
⑥⑤⑤⑦ |⑤-⑥-|
口⑧⑧口 |⑦-⑧-|
27
①①③③ |①-②-|
口口口口 |③-④-|
②②④④
口口口口

口⑧⑧口
⑦⑤⑤⑥
口口口口 |⑤-⑥-|
口口口口 |⑦-⑧-|
28
④④④④ |----|
①口①口 |--①-|
口③③口 |--②-|
口②口② |③-④-|
29
口口口口 |----|
口口口口 |①---|
口口口口
口①①口

口③④口
口⑤⑥口
口③④口 |②-③④|
②⑤⑥② |--⑤⑥|
30
②口口② |①---|
口口口口 |②---|
①口口①
口口口口

口口口口
口口口口
⑤③④⑥ |③-④-|
⑥④③⑤ |⑤-⑥-|
31
口①①口 |①---|
①①①① |--②-|
口口口口
②口②口

⑤口口④
口④⑤⑥
口⑥口口 |③-④-|
口③口③ |⑤-⑥-|
32
③口口③ |①-②-|
①口⑥口 |--③-|
⑤⑥①④ |--④-|
⑤②②④ |⑤-⑥-|
33
口②口口 |①---|
口①口② |--②-|
②口①口
口口②口

口口③口
③口口口
口④⑤③ |③---|
口③口口 |--④⑤|
34
口⑤口口 |①-②③|
④口③口 |--④⑤|
口口口②
口①口口

口口口⑥
口口口口
⑦口口⑧ |--⑥-|
口⑧⑦口 |⑦-⑧-|
35
口①②口 |①-②-|
②口⑤① |③-④⑤|
③⑤口④
口④③口

口口口口
口⑥口口
口口⑥口 |--⑥-|
口⑦⑧口 |--⑦⑧|
36
口③口口 |①-②③|
⑧⑤②⑥ |--④⑤|
⑧①④⑥ |--⑥-|
口⑦⑦口 |⑦-⑧-|
37
⑥①①⑤ |①-②-|
口②②口 |③-④-|
口③③口 |⑤---|
⑤④④⑥ |⑥---|
38
②口口② |①---|
口①①口 |②---|
①口口①
口口口口

口口口口
口③③口
⑥④⑤⑥ |③-④⑤|
口③③口 |--⑥-|
39
①②①② |①---|
口①②口 |②-③-|
口③口口
口口③口

口口口口
口口⑦口
⑤⑦④⑥ |④-⑤-|
⑥④口⑤ |⑥-⑦-|
40
②口口③ |①-②③|
⑥①口⑦ |--④⑤|
④口①⑤ |--⑥-|
⑥⑧⑧⑦ |⑦-⑧-|
41
①口口① |①---|
②口口② |--②-|
口口口口
口②②口

口③③口
口口口口
口③③口 |③---|
口④④口 |--④-|
42
②①②① |①---|
①②①② |②---|
口口口口
口口口口

④③④③
③④③④
口口⑤口 |③---|
口⑤口口 |④-⑤-|
43
③口口② |①-②-|
⑤口口④ |③-④⑤|
④①口⑤
②口①③

口口⑦⑦
口⑥⑥口
口⑥⑥口 |-⑥--|
⑦⑦口口 |--⑦-|
44
①口口口 |--①-|
口③②口 |②③-④|
口②③口
口④④①

⑥⑤⑤口
⑥口口口
口口口⑥ |--⑤-|
口口口⑥ |--⑥-|
45
口口①口 |--①-|
③口口② |②-③-|
②口口③
口①口口

口④⑤口
⑦口口⑥
⑥口口⑦ |④-⑤-|
口⑤④口 |⑥-⑦-|
46
②口口② |①---|
口①①口 |②-③-|
③①①口
口口口口

口口口口
口口口口
口⑤⑥口 |--④-|
口⑦口④ |⑤⑥⑦-|
47
口口口口 |①---|
①①①① |----|
口口口口 |----|
口口口口 |----|

accuracy: 99.5%
最終更新:2024年09月08日 17:33