アットウィキロゴ
令和
ゴールデンボンバー

BASIC

Level: 3
BPM: 142
Notes: 249

1
口口口口 |----|
口口口口 |----|
口口口口 |----|
口口口口 |----|
2
口口口口 |①---|
口口口口 |----|
口口口口 |----|
口①①口 |----|
3
口口口口 |①---|
口口口口 |----|
口①①口 |----|
口口口口 |----|
4
口口口口 |①---|
口①①口 |----|
口口口口 |----|
口口口口 |----|
5
口①①口 |①---|
口口口口 |----|
口口口口 |----|
口口口口 |----|
6
口口口口 |①---|
口口口口 |----|
口口口口 |----|
①口口① |----|
7
口口口口 |①---|
口口口口 |----|
①口口① |----|
口口口口 |----|
8
口口口口 |①---|
①口口① |----|
口口口口 |----|
口口口口 |----|
9
①口口① |①---|
口口口口 |----|
口口口口 |----|
口口口口 |----|
10
口口口口 |①---|
口口口口 |②---|
口口口口 |③---|
①②③④ |④---|
11
口口口口 |①---|
口口口口 |②---|
①②③④ |③---|
口口口口 |④---|
12
口口口口 |①---|
①②③④ |②---|
口口口口 |③---|
口口口口 |④---|
13
①②③④ |①---|
口口口口 |②---|
口口口口 |③---|
口口口口 |④---|
14
①②③④ |①---|
口口口口 |②---|
口口口口 |③---|
口口口口 |④---|
15
口口口口 |①---|
①②③④ |②---|
口口口口 |③---|
口口口口 |④---|
16
口口口口 |①---|
口口口口 |②---|
①②③④ |③---|
口口口口 |④---|
17
口口口口 |①---|
口口口口 |②---|
口口口口 |③---|
①②③④ |④---|
18
口口口口 |①---|
口②④口 |②---|
口①③口 |③---|
口口口口 |④---|
19
口口口口 |①---|
②口口④ |②---|
①口口③ |③---|
口口口口 |④---|
20
口口口口 |①---|
口口口口 |②---|
口③④口 |③---|
口①②口 |④---|
21
口③④口 |①---|
口①②口 |②---|
口口口口 |③---|
口口口口 |④---|
22
口口口口 |①---|
②②④④ |②---|
①①③③ |③---|
口口口口 |④---|
23
口口口口 |----|
①①③③ |①---|
口口②② |②---|
口口口口 |③---|
24
口口口口 |①---|
口③④口 |②---|
口①②口 |③---|
口口口口 |④---|
25
①口口① |①---|
②口口② |②---|
③口口③ |③---|
④口口④ |④---|
26
口口口口 |①---|
口口口口 |----|
口①②口 |②---|
口口口口 |----|
27
口口口口 |①---|
口①②口 |----|
口口口口 |②---|
口口口口 |----|
28
①口口② |①---|
口口口口 |----|
口口口口 |②---|
口口口口 |----|
29
口口口口 |①---|
口①口口 |----|
口口口口 |----|
口口口口 |----|
30
①①口口 |①---|
口口②② |----|
口口口口 |②---|
口口口口 |----|
31
口口口口 |①---|
口口口口 |----|
①①口口 |②---|
口口②② |----|
32
口口口口 |①---|
口口口口 |②---|
口③④口 |③---|
口①②口 |④---|
33
口口口口 |①---|
①①②② |----|
口口口口 |②---|
口口口口 |----|
34
①①①① |①---|
②②②② |②---|
③③③③ |③---|
口口口口 |----|
35
口口口口 |①---|
口口口口 |----|
口口口口 |②---|
口①②口 |----|
36
①①①① |①---|
②②②② |②---|
③③③③ |③---|
口口口口 |----|
37
口口口口 |①---|
口口口口 |----|
口口口口 |②---|
口②①口 |----|
38
①①①① |①---|
②②②② |②---|
③③③③ |③---|
口口口口 |----|
39
口口口口 |①---|
口口口口 |----|
口口口口 |②---|
口①②口 |----|
40
口口口口 |①---|
口口口口 |----|
①口口② |②---|
口口口口 |----|
41
口口口口 |①---|
①口口② |----|
口口口口 |②---|
口口口口 |----|
42
①①①① |①---|
②②②② |②---|
③③③③ |③---|
口口口口 |----|
43
口口口口 |①---|
口口口口 |----|
口口口口 |②---|
口①②口 |----|
44
①①①① |①---|
②②②② |②---|
③③③③ |③---|
口口口口 |----|
45
口口口口 |①---|
口口口口 |----|
口口口口 |②---|
口②①口 |----|
46
①①①① |①---|
②②②② |②---|
③③③③ |③---|
口口口口 |----|
47
口口口口 |①---|
口口口口 |----|
口口口口 |②---|
口①②口 |----|
48
口口口口 |①---|
口口口口 |----|
①口口② |②---|
口口口口 |----|
49
口口口口 |①---|
①口口② |----|
口口口口 |②---|
口口口口 |----|
50
口口口口 |①---|
口口口口 |②---|
口口口口 |③---|
①②③④ |④---|
51
口口口口 |①---|
口口口口 |②---|
①②③④ |③---|
口口口口 |④---|
52
口口口口 |①---|
①②③④ |②---|
口口口口 |③---|
口口口口 |④---|
53
①②③④ |①---|
口口口口 |②---|
口口口口 |③---|
口口口口 |④---|
54
①②③④ |①---|
口口口口 |②---|
口口口口 |③---|
口口口口 |④---|
55
口口口口 |①---|
①②③④ |②---|
口口口口 |③---|
口口口口 |④---|
56
口口口口 |①---|
口口口口 |②---|
①②③④ |③---|
口口口口 |④---|
57
口口口口 |①---|
口口口口 |②---|
口口口口 |③---|
①②③④ |④---|
58
口口口口 |①---|
口口口口 |----|
口①①口 |----|
口口口口 |----|
59
口口口口 |①---|
①口口① |----|
口口口口 |----|
口口口口 |----|
60
①口口① |①---|
口口口口 |----|
口口口口 |----|
口口口口 |----|
61
口口口口 |①---|
口口口口 |----|
口①①口 |----|
口口口口 |----|
62
①①①① |①---|
口口口口 |----|
口口口口 |----|
口口口口 |----|

accuracy: 100%
最終更新:2022年05月30日 14:23