アットウィキロゴ
令和
ゴールデンボンバー

ADVANCED

Level: 7
BPM: 142
Notes: 469

1
口口口口 |----|
口口口口 |----|
口口口口 |----|
口口口口 |----|
2
①口口口 |①---|
口口口② |②---|
③口口口 |③---|
口口口④ |④---|
3
口口口① |①---|
②口口口 |②---|
口口口③ |③---|
④口口口 |④---|
4
口①口口 |①---|
口口②口 |②---|
口③口口 |③---|
口口④口 |④---|
5
口口①口 |①---|
口②口口 |②---|
口口③口 |③---|
口④口口 |④---|
6
①①口口 |①---|
②②口口 |②---|
③③口口 |③---|
④④口口 |④---|
7
口口①① |①---|
口口②② |②---|
口口③③ |③---|
口口④④ |④---|
8
口①①口 |①---|
口②②口 |②---|
口③③口 |③---|
口④④口 |④---|
9
④口口④ |①---|
③口口③ |②---|
②口口② |③---|
①口口① |④---|
10
口⑦⑧口 |①-②-|
口⑤⑥口 |③-④-|
口③④口 |⑤-⑥-|
口①②口 |⑦-⑧-|
11
⑧口口⑦ |①-②-|
⑥口口⑤ |③-④-|
④口口③ |⑤-⑥-|
②口口① |⑦-⑧-|
12
口⑦⑧口 |①-②-|
口⑤⑥口 |③-④-|
口③④口 |⑤-⑥-|
口①②口 |⑦-⑧-|
13
①口口① |①---|
②口口② |②---|
③口口③ |③---|
④口口④ |④---|
14
口⑦⑧口 |①-②-|
口⑤⑥口 |③-④-|
口③④口 |⑤-⑥-|
口①②口 |⑦-⑧-|
15
⑧口口⑦ |①-②-|
⑥口口⑤ |③-④-|
④口口③ |⑤-⑥-|
②口口① |⑦-⑧-|
16
口⑦⑧口 |①-②-|
口⑤⑥口 |③-④-|
口③④口 |⑤-⑥-|
口①②口 |⑦-⑧-|
17
①口口① |①---|
②口口② |②---|
③口口③ |③---|
④口口④ |④---|
18
⑦②口口 |①-②-|
⑥口③口 |③---|
⑤①①口 |④-⑤-|
④口口口 |⑥-⑦-|
19
口③①① |--①-|
口④口口 |--②-|
口⑤口口 |③-④-|
口⑥②② |⑤-⑥-|
20
⑧口口⑦ |①-②-|
⑥口口⑤ |③-④-|
④口口③ |⑤-⑥-|
②口口① |⑦-⑧-|
21
③口口④ |--①-|
口口①① |--②-|
口⑤⑥口 |③-④-|
口口②② |⑤-⑥-|
22
⑤⑤⑧⑧ |①-②-|
①①④④ |③-④-|
⑦⑦⑥⑥ |⑤-⑥-|
③③②② |⑦-⑧-|
23
①①口口 |--①-|
⑥⑥③③ |--②-|
④④⑤⑤ |③-④-|
②②口口 |⑤-⑥-|
24
④口⑤① |①-②-|
口⑥口口 |③-④-|
口口⑦口 |⑤-⑥-|
②⑧口③ |⑦-⑧-|
25
①口口① |①---|
②口口② |②---|
③口⑤③ |③---|
口④口口 |④-⑤-|
26
③口口② |①---|
口①⑥口 |②-③-|
口⑤口口 |--④-|
口口④口 |⑤-⑥-|
27
①口口口 |--①-|
口④③口 |--②-|
口口口口 |③-④-|
②口口口 |----|
28
口口①① |①---|
口③口口 |②-③-|
口口口口
口口②②

口口口口
口口④口
口⑤口口 |--④-|
口口⑥口 |⑤-⑥-|
29
口口口口 |----|
口口口口 |----|
口①口口 |----|
口口口口 |--①-|
30
①①③③ |①---|
口口口口 |--②-|
口口②口 |③---|
口④口口 |--④-|
31
④口口口 |①---|
①①③③ |--②-|
口口口口 |③---|
口口②口 |--④-|
32
口口口⑤ |①-②-|
⑥口口口 |③-④-|
口③④⑦ |--⑤-|
口①②口 |⑥-⑦-|
33
②②口口 |①---|
②①①口 |----|
口口口② |②---|
口口②② |----|
34
口口①① |①---|
口口②② |②---|
②②口口
①①口口

④口口⑤
③③口口
口口③③ |③---|
口口口口 |④-⑤-|
35
口口口口 |①-②-|
口③③口 |--③-|
口④⑤口 |--④-|
①口口② |⑤---|
36
口口②① |①---|
口口②① |②---|
①②口口
①②口口

口③口④
⑤③口口
口口③口 |③---|
口口③口 |④-⑤-|
37
口口③③ |①-②-|
口口④④ |--③-|
⑤⑤口① |--④-|
②口口口 |--⑤-|
38
①①口口 |①---|
②②口口 |②---|
口口②②
口口①①

口口口④
⑤口③③
③③口口 |③---|
口口口口 |④-⑤-|
39
口③③口 |①-②-|
口口口口 |--③-|
口④⑤① |--④-|
②口口口 |⑤---|
40
⑦口口口 |--①-|
口⑥①口 |②-③-|
口②⑤口 |④-⑤-|
③口口④ |⑥-⑦-|
41
口口①① |①---|
口口口口 |②-③-|
②②口口 |----|
口口③③ |----|
42
口口①① |①---|
口口②② |②---|
②②口口
①①口口

④口口⑤
③③口口
口口③③ |③---|
口口口口 |④-⑤-|
43
口口口口 |①-②-|
口③③口 |--③-|
口④⑤口 |--④-|
①口口② |⑤---|
44
口口②① |①---|
口口②① |②---|
①②口口
①②口口

口③口④
⑤③口口
口口③口 |③---|
口口③口 |④-⑤-|
45
口口③③ |①-②-|
口口④④ |--③-|
⑤⑤口① |--④-|
②口口口 |--⑤-|
46
①①口口 |①---|
②②口口 |②---|
口口②②
口口①①

口口口④
⑤口③③
③③口口 |③---|
口口口口 |④-⑤-|
47
口③③口 |①-②-|
口口口口 |--③-|
口④⑤① |--④-|
②口口口 |⑤---|
48
口口口口 |--①-|
口口①口 |②-③-|
口②口口
③口口口

口口口⑤
口口口口
口⑥口口 |④---|
口口口④ |⑤-⑥-|
49
①①③③ |①---|
口口口④ |②-③-|
⑤口②口 |--④-|
口口口⑥ |⑤-⑥-|
50
口⑦⑧口 |①-②-|
口⑤⑥口 |③-④-|
口③④口 |⑤-⑥-|
口①②口 |⑦-⑧-|
51
⑧口口⑦ |①-②-|
⑥口口⑤ |③-④-|
④口口③ |⑤-⑥-|
②口口① |⑦-⑧-|
52
口⑦⑧口 |①-②-|
口⑤⑥口 |③-④-|
口③④口 |⑤-⑥-|
口①②口 |⑦-⑧-|
53
①口口① |①---|
②口口② |②---|
③口口③ |③---|
④口口④ |④---|
54
口⑦⑧口 |①-②-|
口⑤⑥口 |③-④-|
口③④口 |⑤-⑥-|
口①②口 |⑦-⑧-|
55
⑧口口⑦ |①-②-|
⑥口口⑤ |③-④-|
④口口③ |⑤-⑥-|
②口口① |⑦-⑧-|
56
口⑦⑧口 |①-②-|
口⑤⑥口 |③-④-|
口③④口 |⑤-⑥-|
口①②口 |⑦-⑧-|
57
①口口① |①---|
②口口② |②---|
③口口③ |③---|
④口口④ |④---|
58
①口口口 |①---|
口口口② |②---|
③口口口 |③---|
口口口④ |④---|
59
口口①口 |①---|
口②口口 |②---|
口口③口 |③---|
口④口口 |④---|
60
口①口口 |①---|
口口②口 |②---|
口③口口 |③---|
口口④口 |④---|
61
口口口① |①---|
②口口口 |②---|
口口口③ |③---|
④口口口 |④---|
62
口口口口 |①---|
口①①口 |----|
口①①口 |----|
口口口口 |----|

accuracy: 100%
最終更新:2022年05月30日 17:02