アットウィキロゴ
令和
ゴールデンボンバー

EXTREME

Level: 9.1
BPM: 142
Notes: 640

1
口口口口 |----|
口口口口 |----|
口口口口 |----|
口口口口 |----|
2
口口②口 |①-②-|
⑤⑥口口 |③④-⑤|
⑨⑩④③ |⑥-⑦⑧|
①口⑧⑦ |-⑨⑩-|
3
口口⑤④ |--①-|
口①口口 |②③-④|
⑥⑦⑨⑧ |⑤-⑥⑦|
②③口口 |-⑧⑨-|
4
④⑤①口 |--①-|
口口⑦⑥ |②③-④|
⑧⑨口口 |⑤-⑥⑦|
口口③② |-⑧⑨-|
5
①口⑤④ |--①-|
⑥⑦口口 |②③-④|
口口⑨⑧ |⑤-⑥⑦|
②③口口 |-⑧⑨-|
6
①口口口 |①-②-|
口⑤②口 |③④-⑤|
口口口口
口④③口

口口口口
口口⑧口
口口⑦⑥ |-⑥⑦-|
口口⑨口 |⑧-⑨-|
7
口口口口 |--①-|
口①④口 |②③-④|
②口口口
口③口口

口⑦口口
口⑧口口
口⑥口口 |-⑤⑥-|
⑤口口口 |⑦-⑧-|
8
①⑤口⑦ |--①-|
口⑥⑧口 |②③-④|
口③④口 |-⑤⑥-|
②口口口 |⑦-⑧-|
9
⑦⑬⑬⑧ |①②③④|
⑤口口⑥ |⑤⑥⑦⑧|
③⑪⑫④ |⑨⑩⑪⑫|
①⑨⑩② |⑬---|
10
口口口口 |①-②-|
口⑤②口 |③④-⑤|
③口口口
①④③口

⑨口口口
⑥口⑨口
口口⑧⑦ |⑥⑦⑧-|
口口⑩口 |⑨-⑩-|
11
口①③口 |①-②-|
口②⑤口 |③④-⑤|
③口口口
口④口口

口⑨口⑥
口⑩口⑨
口⑧口口 |⑥⑦⑧-|
⑦口口口 |⑨-⑩-|
12
②⑦口⑨ |①-②-|
口⑧⑩口 |③④-⑤|
口④⑤① |⑥⑦⑧-|
③⑨⑥③ |⑨-⑩-|
13
④口口④ |①---|
③口口③ |②---|
②口⑤② |③---|
①口口① |④-⑤-|
14
口口口口 |①-②-|
口⑤②口 |③④-⑤|
③口口口
①④③口

⑨口口口
⑥口⑨口
口口⑧⑦ |⑥⑦⑧-|
口口⑩口 |⑨-⑩-|
15
口①③口 |①-②-|
口②⑤口 |③④-⑤|
③口口口
口④口口

口⑨口⑥
口⑩口⑨
口⑧口口 |⑥⑦⑧-|
⑦口口口 |⑨-⑩-|
16
②⑦口⑨ |①-②-|
口⑧⑩口 |③④-⑤|
口④⑤① |⑥⑦⑧-|
③⑨⑥③ |⑨-⑩-|
17
④口口④ |①---|
③口口③ |②---|
②口口② |③---|
①口口① |④---|
18
口②口口 |①-②-|
口③⑥⑦ |③-④-|
口④⑧⑤ |⑤-⑥-|
①①①① |⑦-⑧-|
19
②①口口 |--①-|
①②④口 |--②-|
口⑤口口 |③-④⑤|
⑥口⑦③ |⑥-⑦-|
20
口口①⑤ |①-②③|
口②⑥口 |④-⑤⑥|
口口③口
口口口④

口口⑩口
⑨口口口
口⑦口⑧ |⑦-⑧-|
口口口口 |⑨-⑩-|
21
②口口① |--①-|
口口口口 |--②-|
口口口口
①口口②

口⑥口⑥
口⑤⑤口
口④口④ |③-④-|
口③③口 |⑤-⑥-|
22
①⑤①⑤ |①-②-|
③⑦⑧④ |③-④-|
③⑦⑧④ |⑤-⑥-|
⑥②⑥② |⑦-⑧-|
23
①③①③ |--①-|
口⑤⑥口 |--②-|
口⑤⑥口 |③-④-|
④②④② |⑤-⑥-|
24
①④③② |①-②③|
口⑧口口 |④-⑤⑥|
口⑩⑨口 |⑦-⑧-|
⑤⑥⑦口 |⑨-⑩-|
25
①口①口 |①---|
①②口② |②---|
口口口②
口口口口

口口口口
口口口口
③口③⑤ |③---|
③口口④ |④-⑤-|
26
②口口口 |①---|
口①①① |②-③-|
口③③口
口口③口

口口口④
口口口⑤
口口口⑥ |--④-|
口口口口 |⑤-⑥-|
27
②口口口 |①-②-|
口①①⑤ |--③-|
口③③口 |④-⑤-|
③口口④ |----|
28
①①①⑥ |①---|
口口口⑤ |②-③-|
③口口④ |--④-|
口③③② |⑤-⑥-|
29
口④③口 |①---|
口①①口 |--②-|
口②②口 |----|
口口口口 |--③④|
30
①口口⑧ |①-②③|
⑦⑫口⑨ |④-⑤⑥|
⑥口⑪⑩ |⑦-⑧⑨|
⑤②③④ |⑩-⑪⑫|
31
①口口④ |①-②③|
口口③口 |④-⑤⑥|
口②口口
口⑤⑥口

⑩⑨⑧口
口口口口
口⑪口口 |⑦-⑧⑨|
口口口⑦ |⑩-⑪-|
32
⑧口口① |①-②-|
②口口⑦ |③-④-|
⑥口口③ |⑤-⑥-|
④口口⑤ |⑦-⑧-|
33
口④口③ |①②③④|
⑥口⑤口 |⑤⑥⑦⑧|
口②①口
口⑧口⑦

口口⑨口
口⑩口⑩
口口⑩⑨ |⑨---|
口口口口 |⑩---|
34
①②口口 |①---|
①口口口 |②---|
①②口口
①口口口

④口⑤口
④口③口
口口⑤口 |③---|
口口③口 |④-⑤-|
35
口口④③ |①-②-|
③④口⑤ |--③-|
①①⑤③ |--④-|
③口②② |⑤---|
36
①②⑤口 |①---|
①口③④ |②---|
①②⑤④ |③---|
①口③口 |④-⑤-|
37
口②口② |①-②-|
口①口口 |--③-|
口①口口
口③③口

口口口⑤
口④口⑤
口口④口 |--④-|
口口口口 |--⑤-|
38
①②口口 |①---|
①口口口 |②---|
①②口口
①口口口

口口口口
④⑤③口
④⑤口口 |③---|
口口③口 |④-⑤-|
39
④②①② |①-②-|
口口口⑤ |--③-|
④口①口 |--④-|
口③③⑤ |⑤---|
40
口口④④ |--①-|
⑤③口口 |②-③-|
口②⑥⑥ |④-⑤-|
⑦①口口 |⑥-⑦-|
41
③①③口 |①---|
口④①④ |②-③-|
口口④口 |----|
口②口② |④---|
42
①②口口 |①---|
①口口口 |②---|
①②口口
①口口口

④口⑤口
④口③口
口口⑤口 |③---|
口口③口 |④-⑤-|
43
口口④③ |①-②-|
③④口⑤ |--③-|
①①⑤③ |--④-|
③口②② |⑤---|
44
①②⑤口 |①---|
①口③④ |②---|
①②⑤④ |③---|
①口③口 |④-⑤-|
45
口②口② |①-②-|
口①口口 |--③-|
口①口口
口③③口

口口口⑤
口④口⑤
口口④口 |--④-|
口口口口 |--⑤-|
46
①②口口 |①---|
①口口口 |②---|
①②口口
①口口口

口口口口
④⑤③口
④⑤口口 |③---|
口口③口 |④-⑤-|
47
④②①② |①-②-|
口口口⑤ |--③-|
④口①口 |--④-|
口③③⑤ |⑤---|
48
口口④④ |--①-|
⑤③口口 |②-③-|
口②⑥⑥ |④-⑤-|
⑦①口口 |⑥-⑦-|
49
①①②③ |①---|
口口③② |②-③-|
口口口口
口口口口

④④口口
⑤⑤口口
口⑥⑥口 |--④-|
口口口口 |⑤-⑥-|
50
口口口口 |①-②-|
口⑤②口 |③④-⑤|
③口口口
①④③①

⑨口口口
⑥口⑨口
口口⑧⑦ |⑥⑦⑧-|
口口⑩口 |⑨-⑩-|
51
口①③口 |①-②-|
口②⑤口 |③④-⑤|
③口口口
口④口口

口⑨口⑥
口⑩口⑨
口⑧口口 |⑥⑦⑧-|
⑦口口口 |⑨-⑩-|
52
②⑦口⑨ |①-②-|
口⑧⑩口 |③④-⑤|
口④⑤① |⑥⑦⑧-|
③⑨⑥③ |⑨-⑩-|
53
④口口④ |①---|
③口口③ |②---|
②口⑤② |③---|
①口口① |④-⑤-|
54
口口口口 |①-②-|
口⑤②口 |③④-⑤|
③口口口
①④③口

⑨口口口
⑥口⑨口
口口⑧⑦ |⑥⑦⑧-|
口口⑩口 |⑨-⑩-|
55
口①③口 |①-②-|
口②⑤口 |③④-⑤|
③口口口
口④口口

口⑨口⑥
口⑩口⑨
口⑧口口 |⑥⑦⑧-|
⑦口口口 |⑨-⑩-|
56
②⑦口⑨ |①-②-|
口⑧⑩口 |③④-⑤|
口④⑤① |⑥⑦⑧-|
③⑨⑥③ |⑨-⑩-|
57
④口口④ |①---|
③口口③ |②---|
②口口② |③---|
①口口① |④---|
58
口口②口 |①-②-|
⑤⑥口口 |③④-⑤|
⑨⑩④③ |⑥-⑦⑧|
①口⑧⑦ |-⑨⑩-|
59
口口⑤④ |--①-|
口①口口 |②③-④|
⑥⑦⑨⑧ |⑤-⑥⑦|
②③口口 |-⑧⑨-|
60
④⑤①口 |--①-|
口口⑦⑥ |②③-④|
⑧⑨口口 |⑤-⑥⑦|
口口③② |-⑧⑨-|
61
①口口④ |--①-|
口口口口 |②③-④|
口口口口
②③口口

⑩口⑤口
⑥⑦口⑩
⑩口⑨⑧ |⑤-⑥⑦|
口口口⑩ |-⑧⑨⑩|
62
口口口口 |----|
口口口口 |----|
口口口口 |----|
口口口口 |----|

accuracy: 100%
最終更新:2022年05月31日 03:17