アットウィキロゴ
Spica
BEMANI Sound Team "TATSUYA"

BASIC

Level: 3
BPM: 176
Notes: 195

1
口口口口 |----|
口口口口 |----|
口口口口 |----|
口口口口 |----|
2
口口口口 |①---|
口口口口 |----|
口①①口 |----|
口口口口 |----|
3
口口口口 |----|
口口口口 |----|
口口口口 |----|
口口口口 |----|
4
口口口口 |①---|
口口口口 |----|
口口口口 |----|
口①①口 |----|
5
口口口口 |----|
口口口口 |----|
口口口口 |----|
口口口口 |----|
6
口口口口 |①---|
口口口口 |----|
口①①口 |----|
口口口口 |----|
7
口口口口 |----|
口口口口 |----|
口口口口 |----|
口口口口 |----|
8
口①①口 |①---|
口口口口 |----|
口口口口 |----|
口口口口 |----|
9
口口口口 |①---|
②口口② |----|
口①①口 |②---|
口口口口 |----|
10
口口口口 |①---|
口口口口 |----|
口口①① |----|
口口口口 |----|
11
口口口口 |①---|
口口口口 |----|
①口口口 |----|
口口口口 |----|
12
口口口口 |①---|
口口口口 |----|
口口口口 |----|
①①口口 |----|
13
口口口口 |①---|
口口口口 |----|
口口口口 |----|
口口口① |----|
14
口口口口 |①---|
口口口口 |----|
口口①① |----|
口口口口 |----|
15
口口口口 |①---|
口口口口 |----|
①口口口 |----|
口口口口 |----|
16
口口口口 |①---|
口口口口 |----|
口口口口 |----|
①①口口 |----|
17
口口口口 |①---|
①口口① |----|
口口口口 |----|
口口口口 |----|
18
①②口口 |①---|
口口口口 |----|
口口口口 |②---|
口口口口 |----|
19
口口①② |①---|
口口口口 |----|
口口口口 |②---|
口口口口 |----|
20
口口口口 |①---|
口①②口 |----|
口口口口 |②---|
口口口口 |----|
21
口口口口 |①---|
口口口口 |----|
口①②口 |②---|
口口口口 |----|
22
口口口口 |①---|
口①①口 |----|
口口口口 |----|
口口口口 |----|
23
口口口口 |①---|
口口口口 |----|
口①①口 |----|
口口口口 |----|
24
口口口口 |①---|
口口口① |----|
口口②口 |②---|
口口口口 |----|
25
口口口口 |①---|
②口口口 |----|
口①口口 |②---|
口口口口 |----|
26
口②②口 |①---|
口口口口 |----|
口①①口 |----|
口口口口 |②---|
27
口口口口 |----|
口口口口 |----|
口口口口 |----|
口口口口 |----|
28
①口口① |①---|
口口口口 |----|
口②②口 |----|
口口口口 |②---|
29
口口口口 |----|
口口口口 |----|
口口口口 |----|
口口口口 |----|
30
口②②口 |①---|
口口口口 |----|
①口口① |----|
口口口口 |②---|
31
口口口口 |----|
口口口口 |----|
口口口口 |----|
口口口口 |----|
32
口口口口 |①---|
口①②口 |----|
口口口口 |②---|
口口口口 |----|
33
②口口② |①---|
口口口口 |----|
口①①口 |②---|
口口口口 |----|
34
口口口口 |①---|
口①①口 |----|
口①①口 |----|
口口口口 |----|
35
口口口口 |----|
口口口口 |----|
口口口口 |----|
口口口口 |----|
36
口口口口 |----|
口口口口 |----|
口口口口 |----|
口口口口 |----|
37
口口口口 |----|
口口口口 |----|
口口口口 |----|
口口口口 |----|
38
口口口口 |①---|
口②口口 |----|
①口口口 |②---|
口口口口 |----|
39
口口口口 |①---|
口口口② |----|
口口①口 |②---|
口口口口 |----|
40
口口口口 |①---|
口口口口 |----|
①①②② |②---|
口口口口 |----|
41
口口口口 |①---|
①①②② |----|
口口口口 |②---|
口口口口 |----|
42
①①①① |①---|
口口口口 |----|
口口口口 |----|
口口口口 |----|
43
口口口口 |①---|
口③④口 |②---|
口①②口 |③---|
口口口口 |④---|
44
①口口② |①---|
③口口④ |②---|
口口口口 |③---|
口口口口 |④---|
45
口口口口 |①---|
口口口口 |----|
①①口口 |②---|
口②②口 |----|
46
口口口口 |①---|
②口口② |----|
口口①① |②---|
口口口口 |----|
47
②口口① |①---|
口③③口 |②---|
口口口口 |③---|
口口口口 |----|
48
口口口口 |①---|
②口口① |②---|
口③③口 |③---|
口口口口 |----|
49
口③②口 |①---|
④口口① |②---|
口口口口 |③---|
口口口口 |④---|
50
口口口口 |①---|
口口口口 |②---|
①口口④ |③---|
口②③口 |④---|
51
口口口口 |①---|
口④③口 |②---|
口②①口 |③---|
口口口口 |④---|
52
②口口① |①---|
④口口③ |②---|
口口口口 |③---|
口口口口 |④---|
53
口口口口 |①---|
口口口口 |----|
口口①① |②---|
口②②口 |----|
54
口口口口 |①---|
②口口② |----|
①①口口 |②---|
口口口口 |----|
55
口口口口 |①---|
口口口口 |②---|
口口口口 |③---|
④③②① |④---|
56
口口口口 |①---|
口口口口 |②---|
①②③④ |③---|
口口口口 |④---|
57
口口口口 |①---|
④③②① |②---|
口口口口 |③---|
口口口口 |④---|
58
①②③④ |①---|
口口口口 |②---|
口口口口 |③---|
口口口口 |④---|
59
口口口口 |①---|
口①①口 |----|
口①①口 |----|
口口口口 |----|
60
口口口口 |----|
口口口口 |----|
口口口口 |----|
口口口口 |----|
61
口口口口 |①---|
口口口口 |----|
口口口口 |----|
口①①口 |----|
62
口口口口 |----|
口口口口 |----|
口口口口 |----|
口口口口 |----|
63
口口口口 |①---|
口口口口 |----|
口①①口 |----|
口口口口 |----|
64
口口口口 |----|
口口口口 |----|
口口口口 |----|
口口口口 |----|
65
口①①口 |①---|
口口口口 |----|
口口口口 |----|
口口口口 |----|
66
口口口口 |①---|
口口口口 |----|
口①①口 |----|
口口口口 |----|
67
口口④口 |①---|
口③口口 |②---|
口口②口 |③---|
口①口口 |④---|
68
口①口口 |①---|
口口②口 |②---|
口③口口 |③---|
口口④口 |④---|
69
口口口口 |①---|
④口②口 |②---|
口③口① |③---|
口口口口 |④---|
70
口口口口 |①---|
口口口口 |②---|
①口口④ |③---|
口②③口 |④---|
71
口口口口 |①---|
口③口① |②---|
④口②口 |③---|
口口口口 |④---|
72
口口口口 |①---|
①口③口 |②---|
口②口④ |③---|
口口口口 |④---|
73
②口①① |①---|
④口③③ |②---|
口口口口 |③---|
口口口口 |④---|
74
口口口口 |①---|
口口口口 |②---|
②口①① |③---|
④口③③ |④---|
75
口口口口 |①---|
口①①口 |----|
口①①口 |----|
口口口口 |----|

accuracy: 100%
最終更新:2022年05月07日 02:28