アットウィキロゴ
Spica
BEMANI Sound Team "TATSUYA"

ADVANCED

Level: 7
BPM: 176
Notes: 388

1
口口口口 |----|
口口口口 |----|
口口口口 |----|
口口口口 |----|
2
③口口④ |①---|
①口口② |②---|
口口口口 |③---|
口口口口 |④---|
3
口口口口 |①---|
①口口② |②---|
③口口④ |③---|
口口口口 |④---|
4
③口口④ |①---|
①口口② |②---|
口口口口 |③---|
口口口口 |④---|
5
口①②口 |①---|
口③④口 |②---|
口口口口 |③---|
口口口口 |④---|
6
口口口口 |①---|
①口口② |②---|
③口口④ |③---|
口口口口 |④---|
7
③口口④ |①---|
①口口② |②---|
口口口口 |③---|
口口口口 |④---|
8
口①②口 |①---|
口③④口 |②---|
口口口口 |③---|
口口口口 |④---|
9
口口口口 |①---|
口口口口 |②---|
口①②口 |③---|
口③④口 |④---|
10
③口口④ |①---|
①口口② |②---|
口①口口 |③---|
口口口口 |④---|
11
口口口口 |①---|
①口口② |②---|
③口口④ |③---|
口口口口 |④---|
12
③口口④ |①---|
①口口② |②---|
口①口口 |③---|
口口口口 |④---|
13
口①②口 |①---|
口③④口 |②---|
口口口口 |③---|
口口口口 |④---|
14
口①口口 |①---|
①口口② |②---|
③口口④ |③---|
口口口口 |④---|
15
③口口④ |①---|
①口口② |②---|
口口口口 |③---|
口口口口 |④---|
16
口①②口 |①---|
①③④口 |②---|
口口口口 |③---|
口口口口 |④---|
17
口口口口 |①---|
口口口口 |②---|
口①②口 |③---|
口③④口 |④---|
18
口③口口 |①---|
口④②口 |②---|
口口口① |③---|
口口口口 |④---|
19
口口口口 |①---|
口口口口 |②---|
口④①口 |③---|
口口③② |④---|
20
口②口④ |①---|
①口③口 |②---|
口口口口 |③---|
口口口口 |④---|
21
口口口口 |①---|
口③③① |②---|
口口②口 |③---|
口口口口 |----|
22
①口口② |①---|
口③④口 |②---|
口口口口 |③---|
口口口口 |④---|
23
口③④口 |①---|
①口口② |②---|
口口口口 |③---|
口口口口 |④---|
24
口口口口 |①---|
④⑤口口 |②-③-|
口①③② |--④-|
口口口口 |⑤---|
25
③④⑥⑤ |①-②-|
口口②① |--③-|
口口口口 |④---|
口口口口 |⑤-⑥-|
26
口⑤⑤口 |①---|
①口口④ |②-③-|
①口口口 |--④-|
口③②口 |⑤---|
27
①口口口 |----|
口口口口 |----|
②口口口 |①---|
口口口口 |②---|
28
口口口口 |①---|
④口口① |②-③-|
口⑤⑤① |--④-|
口②③口 |⑤---|
29
口口口② |----|
口口口口 |----|
口口口① |①---|
口口口口 |②---|
30
口⑤⑤口 |①---|
①口口④ |②-③-|
①口口口 |--④-|
口③②口 |⑤---|
31
①口口口 |----|
口口口口 |----|
②口口口 |①---|
口口口口 |②---|
32
口口口口 |①---|
口②①口 |②---|
口④③口 |③---|
口口口口 |④---|
33
口②口口 |①---|
②口①口 |----|
口口口① |②---|
口口口口 |----|
34
口口口口 |①---|
口①①口 |----|
口①①口 |----|
口口口口 |----|
35
口口口口 |----|
口口口口 |----|
口口口口 |----|
口口口口 |----|
36
口口口口 |----|
口口口口 |----|
口口口口 |----|
口口口口 |----|
37
口口口口 |----|
口口口口 |----|
口口口口 |----|
口口口口 |----|
38
口口口口 |①-②-|
④⑧③⑦ |③-④-|
口口口口 |⑤-⑥-|
⑥②⑤① |⑦-⑧-|
39
口口口口 |①-②-|
④⑧③⑦ |③-④-|
口口口口 |⑤-⑥-|
⑥②⑤① |⑦-⑧-|
40
口②口口 |①---|
②口口口 |----|
口①①口 |②---|
口口口口 |----|
41
口口①口 |①---|
口②③① |----|
口③②口 |②---|
口口口口 |③---|
42
①①①① |①---|
口口口口 |----|
口口口口 |----|
口口口口 |----|
43
口口口口 |①-②-|
⑤口口口 |③-④-|
①③口② |--⑤-|
口口④⑥ |--⑥-|
44
⑤口口④ |--①-|
⑦③②⑥ |②-③-|
口①口口 |④-⑤-|
口口口口 |⑥-⑦-|
45
口口⑦口 |--①-|
口⑥⑤口 |②-③-|
口④③口 |④-⑤-|
口②①口 |⑥-⑦-|
46
①口口口 |--①-|
①口④② |--②-|
口③口② |--③-|
口⑤口口 |④-⑤-|
47
口口口口 |--①-|
⑥⑤④③ |②---|
口口口口 |③-④-|
口口②① |⑤-⑥-|
48
①②口口 |--①-|
口口口口 |②---|
③④⑤⑥ |③-④-|
口口口口 |⑤-⑥-|
49
口口口口 |--①-|
口口口口 |②-③-|
⑥口⑤⑦ |④-⑤-|
④②③① |⑥-⑦-|
50
⑤⑦⑥口 |--①-|
③①④② |②-③-|
口口口口 |④-⑤-|
口口口口 |⑥-⑦-|
51
口口口口 |①-②-|
口口口⑤ |③-④-|
②口③① |--⑤-|
⑥④口口 |--⑥-|
52
④口口⑤ |--①-|
⑥②③⑦ |②-③-|
口口①口 |④-⑤-|
口口口口 |⑥-⑦-|
53
口口口口 |--①-|
口口口口 |②-③-|
⑤③④口 |④--⑤|
口①②⑥ |--⑥-|
54
口⑤⑥口 |①-②-|
③口口口 |--③-|
口口口④ |--④-|
口①②口 |⑤-⑥-|
55
⑦口⑧口 |①-②-|
口⑤口⑥ |③-④-|
③口④口 |⑤-⑥-|
口①口② |⑦-⑧-|
56
口⑦口⑧ |①-②-|
⑤口⑥口 |③-④-|
口③口④ |⑤-⑥-|
①口②口 |⑦-⑧-|
57
口口④⑧ |①-②-|
⑦③口口 |③-④-|
口口②⑥ |⑤-⑥-|
⑤①口口 |⑦-⑧-|
58
⑤③④口 |①-②-|
口③④⑥ |③-④-|
⑦①②口 |⑤-⑥-|
口①②⑧ |⑦-⑧-|
59
②口口③ |①---|
口口口口 |----|
口①①口 |②---|
口①①口 |③---|
60
口口口口 |①---|
①口口② |②---|
③口口④ |③---|
口口口口 |④---|
61
③口口④ |①---|
①口口② |②---|
口口口口 |③---|
口口口口 |④---|
62
口①②口 |①---|
口③④口 |②---|
口口口口 |③---|
口口口口 |④---|
63
口口口口 |①---|
①口口② |②---|
③口口④ |③---|
口口口口 |④---|
64
③口口④ |①---|
①口口② |②---|
口口口口 |③---|
口口口口 |④---|
65
口①②口 |①---|
口③④口 |②---|
口口口口 |③---|
口口口口 |④---|
66
口口口口 |①---|
口口口口 |②---|
口①②口 |③---|
口③④口 |④---|
67
口口⑦③ |①-②-|
⑧④①⑤ |③-④-|
②⑥口口 |⑤-⑥-|
口口口口 |⑦-⑧-|
68
⑧口⑦③ |①-②-|
口④①口 |③-④-|
②口口口 |⑤-⑥-|
口⑥口⑤ |⑦-⑧-|
69
口口口口 |①-②-|
口口⑦③ |③-④-|
⑧④①⑤ |⑤-⑥-|
②⑥口口 |⑦-⑧-|
70
口②①口 |①-②-|
⑤口口⑧ |③-④-|
口④③口 |⑤-⑥-|
⑦口口⑥ |⑦-⑧-|
71
③⑦口口 |①-②-|
⑤①④⑧ |③-④-|
口口⑥② |⑤-⑥-|
口口口口 |⑦-⑧-|
72
③⑦口⑧ |①-②-|
口①④口 |③-④-|
口口口② |⑤-⑥-|
⑤口⑥口 |⑦-⑧-|
73
口口口口 |①-②-|
①口口④ |③-④-|
⑧②③⑤ |⑤-⑥-|
口⑦⑥口 |⑦-⑧-|
74
口②③口 |①-②-|
①口口④ |③-④-|
⑧口口⑤ |⑤-⑥-|
口⑦⑥口 |⑦-⑧-|
75
口口口口 |①---|
口①①口 |----|
口①①口 |----|
口口口口 |----|

accuracy: 100%
最終更新:2022年05月07日 02:37