アットウィキロゴ
Spica
BEMANI Sound Team "TATSUYA"

EXTREME

Level: 10.2
BPM: 176
Notes: 787

1
口口口口 |----|
口口口口 |----|
口口口口 |----|
口口口口 |----|
2
口口①① |①-②-|
⑤③④⑥ |③④⑤-|
⑩⑧⑨② |⑥-⑦-|
口口口⑦ |⑧⑨⑩-|
3
口口口① |①-②-|
⑤③④口 |③④⑤-|
⑩口⑨② |⑥⑦⑧-|
⑧⑦⑥口 |⑨-⑩-|
4
口①①口 |①-②-|
⑤③④⑥ |③④⑤-|
⑩⑧⑨② |⑥-⑦-|
口口口⑦ |⑧⑨⑩-|
5
①口②口 |①-②-|
口③口④ |③-④-|
⑨⑥⑦口 |⑤⑥⑦⑧|
⑤⑨⑩⑧ |⑨-⑩-|
6
口口①① |①-②-|
⑤③④⑥ |③④⑤-|
⑩⑧⑨② |⑥-⑦-|
口口口⑦ |⑧⑨⑩-|
7
口口口① |①-②-|
⑤③④口 |③④⑤-|
⑩口⑨② |⑥⑦⑧-|
⑧⑦⑥口 |⑨-⑩-|
8
口①①② |①-②-|
口④口③ |③-④-|
口⑤⑥⑦ |⑤⑥⑦-|
口⑧口⑨ |⑧-⑨-|
9
①①②口 |①-②-|
④口③口 |③-④-|
⑤⑥⑦口 |⑤⑥⑦-|
⑧口⑨口 |⑧-⑨-|
10
⑥③⑧① |①-②-|
口⑨④① |③④⑤-|
⑦⑤⑩② |⑥-⑦-|
口口口口 |⑧⑨⑩-|
11
口③口① |①-②-|
口口④口 |③④⑤-|
⑨⑤⑩② |⑥⑦⑧-|
口⑧⑦⑥ |⑨-⑩-|
12
⑥③⑧① |①-②-|
口⑨④② |③④⑤-|
⑦⑤⑩① |⑥-⑦-|
口口口口 |⑧⑨⑩-|
13
口⑨口① |①-②-|
⑨口③口 |③-④-|
口⑦⑧② |⑤⑥⑦⑧|
⑤⑩④⑥ |⑨-⑩-|
14
③口②口 |①-②-|
口④口① |③④⑤-|
⑤口口①
口口口口

口口口⑧
口口⑨口
口口口⑩ |⑥-⑦-|
⑦口口⑥ |⑧⑨⑩-|
15
③口口口 |①-②-|
①④口② |③④⑤-|
⑤口口口
口口口口

口口口口
⑩口口口
口⑦口口 |⑥⑦⑧-|
⑧⑨⑥口 |⑨-⑩-|
16
口②①① |①-②-|
口③口④ |③-④-|
口⑦⑥⑤ |⑤⑥⑦-|
口⑧口⑨ |⑧-⑨-|
17
①⑨⑤⑬ |①②③④|
②⑩⑥⑭ |⑤⑥⑦⑧|
③⑪⑦⑮ |⑨⑩⑪⑫|
④⑫⑧⑯ |⑬⑭⑮⑯|
18
③⑤④口 |①-②-|
①⑦②⑥ |③-④-|
③⑤口⑧ |⑤-⑥-|
①⑦口口 |⑦-⑧-|
19
③⑨口⑧ |①-②-|
①⑦口⑥ |③-④-|
③⑤②⑩ |⑤⑥⑦⑧|
①口④口 |⑨-⑩-|
20
口⑥⑧口 |①-②-|
⑤⑦⑤⑦ |③-④-|
口④②口 |⑤-⑥-|
③①③① |⑦-⑧-|
21
②口⑦① |①---|
⑧⑤④口 |②---|
②⑥③① |③④⑤⑥|
口口口口 |⑦-⑧-|
22
口口口③ |①-②-|
口口口① |③-④-|
②口口①
口④口口

口口口口
口口口⑦
口⑥口口 |--⑤-|
口口口⑤ |⑥-⑦-|
23
①②③口 |--①②|
④⑦⑤口 |③-④-|
口⑧⑥口 |⑤-⑥-|
口口口口 |⑦-⑧-|
24
②口口口 |①-②-|
口口口① |③④⑤⑥|
⑨⑩⑥⑤ |--⑦⑧|
⑦⑧④③ |⑨⑩--|
25
⑦⑧④③ |①②③④|
⑤⑥②① |--⑤⑥|
口⑪⑩⑨ |⑦⑧--|
口口口口 |⑨⑩⑪-|
26
口⑤口⑤ |①---|
②③口① |②-③-|
④口④口 |--④-|
③②口① |⑤---|
27
②⑥⑤口 |①-②-|
④口口口 |③-④-|
口⑤⑥③ |⑤---|
口⑤⑥① |⑥---|
28
口④口④ |①---|
③②口① |②-③-|
⑤口⑤口 |--④-|
②③口① |⑤---|
29
①⑧②口 |①-②-|
③口④口 |③-④-|
口⑦口口 |⑤-⑥-|
⑤口⑥口 |⑦-⑧-|
30
口⑤口⑤ |①---|
②③口① |②-③-|
④口④口 |--④-|
③②口① |⑤---|
31
②⑥⑤口 |①-②-|
④口口口 |③-④-|
口⑤⑥③ |⑤---|
口⑤⑥① |⑥---|
32
口口口① |①---|
口③④① |②-③-|
②口口⑤ |④-⑤-|
口⑦⑥口 |⑥-⑦-|
33
口口②② |①---|
口②口① |----|
②①①口 |②---|
①③③口 |③---|
34
口口口⑤ |①-②-|
⑥⑦③① |③-④-|
⑧④口① |⑤-⑥-|
②口口口 |⑦-⑧-|
35
口口①⑤ |①-②-|
⑥⑦③口 |③-④-|
⑧④口口 |⑤-⑥-|
口②口口 |⑦-⑧-|
36
口口①⑤ |①-②-|
⑥⑦③口 |③-④-|
⑧④口口 |⑤-⑥-|
口②口口 |⑦-⑧-|
37
口口①⑤ |①-②-|
⑥口③口 |③-④-|
口④口口 |⑤-⑥-|
口②口口 |----|
38
口口口口 |①-②-|
口口③① |③-④-|
口④口①
②口口口

⑥口口⑤
⑦口口口
⑧口口⑨ |⑤-⑥⑦|
口口口口 |⑧-⑨-|
39
⑥口①⑤ |①-②-|
⑧口③⑦ |③-④-|
⑩④口⑨ |⑤-⑥-⑦-|
口②口口 |⑧-⑨-⑩-|
40
口口口口 |①-②-③-|
⑫⑥⑤⑪ |④-⑤-⑥-|
⑩④③⑨ |⑦-⑧-⑨-|
⑧②①⑦ |⑩-⑪-⑫-|
41
⑧⑥⑤⑦ |①-②-③-|
⑩④③⑨ |④-⑤-⑥-|
⑫②①⑪ |⑦-⑧-⑨-|
口口口口 |⑩-⑪-⑫-|
42
口口口口 |①---|
口口口口 |----|
口①①口 |----|
口①①口 |----|
43
④①③口 |①-②-|
①④口③ |③-④-|
②口口①
口②①口

口口口⑤
⑥口口口
口口⑤口 |--⑤-|
⑥口口口 |--⑥-|
44
⑦口④口 |--①②|
口⑧②⑥ |③④⑤⑥|
⑤①⑨口 |⑦-⑧-|
口③口⑩ |⑨-⑩-|
45
⑩⑩⑨口 |--①②|
⑤⑧⑥⑨ |③④⑤⑥|
⑦③⑧④ |⑦-⑧-|
①⑦②口 |⑨-⑩-|
46
口口口① |--①-|
②⑤②口 |--②-|
口口④① |--③④|
口③⑥口 |⑤-⑥-|
47
⑧口口① |--①-|
⑥⑦口② |②-③-|
④⑤口③ |④⑤⑥⑦|
口口口⑨ |⑧-⑨-|
48
⑩④②⑨ |①-②-|
口口⑧⑦ |③-④-|
口口⑥⑤ |⑤⑥⑦⑧|
口①③口 |⑨-⑩-|
49
口⑦⑧口 |--①②|
⑤⑥⑨⑩ |③④⑤⑥|
③④⑪⑫ |⑦⑧⑨⑩|
①②⑬⑭ |⑪⑫⑬⑭|
50
⑤④口⑭ |--①②|
③⑥⑬⑩ |③④⑤⑥|
⑦②⑨⑫ |⑦⑧⑨⑩|
①⑧⑪口 |⑪⑫⑬⑭|
51
⑤③①口 |①-②-|
③④口⑥ |③-④-|
④⑤口口 |--⑤-|
②口口⑥ |--⑥-|
52
口④口⑦ |--①②|
⑥②⑨口 |③④⑤⑥|
口⑩①⑤ |⑦-⑧-|
⑧口③口 |⑨-⑩-|
53
口⑤口口 |--①②|
⑦口⑥⑤ |③④--|
⑥口①② |⑤--⑥|
口⑦③④ |--⑦-|
54
③口①口 |①-②-|
口①口口 |--③-|
口③口②
口口②口

口口⑥口
口口④⑥
⑤口口口 |--④-|
口⑤口④ |⑤-⑥-|
55
⑤⑥⑭⑯ |①②③④|
①②⑬⑮ |⑤⑥⑦⑧|
⑩⑫③④ |⑨⑩⑪⑫|
⑨⑪⑦⑧ |⑬⑭⑮⑯|
56
②④⑮⑯ |①②③④|
①③⑬⑭ |⑤⑥⑦⑧|
⑪⑫⑥⑧ |⑨⑩⑪⑫|
⑨⑩⑤⑦ |⑬⑭⑮⑯|
57
①⑫⑯⑭ |①②③④|
⑪②⑬⑮ |⑤⑥⑦⑧|
⑧⑩③⑤ |⑨⑩⑪⑫|
⑨⑦⑥④ |⑬⑭⑮⑯|
58
①⑪口⑩ |①②③④|
⑨②口口 |⑤⑥⑦⑧|
⑧⑫③口 |⑨-⑩-|
⑦⑥⑤④ |⑪-⑫-|
59
①口①口 |①-②-|
⑤③④⑥ |③④⑤-|
⑩⑧⑨② |⑥-⑦-|
口口口⑦ |⑧⑨⑩-|
60
口口口① |①-②-|
⑤③④口 |③④⑤-|
⑩口⑨② |⑥⑦⑧-|
⑧⑦⑥口 |⑨-⑩-|
61
口①口① |①-②-|
⑤③④⑥ |③④⑤-|
⑩⑧⑨② |⑥-⑦-|
口口口⑦ |⑧⑨⑩-|
62
①口②口 |①-②-|
口③口④ |③-④-|
⑨⑥⑦口 |⑤⑥⑦⑧|
⑤⑨⑩⑧ |⑨-⑩-|
63
口①①① |①-②-|
⑤③④⑥ |③④⑤-|
⑩⑧⑨② |⑥-⑦-|
口口口⑦ |⑧⑨⑩-|
64
口口口① |①-②-|
⑤③④口 |③④⑤-|
⑩口⑨② |⑥⑦⑧-|
⑧⑦⑥口 |⑨-⑩-|
65
①①①② |①-②-|
口④口③ |③-④-|
口⑤⑥⑦ |⑤⑥⑦-|
口⑧口⑨ |⑧-⑨-|
66
①①②口 |①-②-|
④口③口 |③-④-|
⑤⑥⑦口 |⑤⑥⑦-|
⑧口⑨口 |⑧-⑨-|
67
⑥③⑧口 |①-②-|
口④⑨① |③④⑤-|
⑦⑤⑩② |⑥-⑦-|
口①口① |⑧⑨⑩-|
68
口③口① |①-②-|
口④口口 |③④⑤-|
⑨⑤⑩② |⑥⑦⑧-|
口⑧⑦⑥ |⑨-⑩-|
69
⑥③⑧① |①-②-|
口④⑨② |③④⑤-|
⑦⑤⑩① |⑥-⑦-|
口口口口 |⑧⑨⑩-|
70
口⑨口① |①-②-|
⑨③口口 |③-④-|
口⑦⑧② |⑤⑥⑦⑧|
⑤④⑩⑥ |⑨-⑩-|
71
③口②口 |①-②-|
口④口① |③④⑤-|
⑤口口①
口口口口

口口口⑧
口口⑨口
口口口⑩ |⑥-⑦-|
⑦口口⑥ |⑧⑨⑩-|
72
③口口口 |①-②-|
①④口② |③④⑤-|
⑤口口口
口口口口

口口口口
⑩口口口
口⑦口口 |⑥⑦⑧-|
⑧⑨⑥口 |⑨-⑩-|
73
口②①① |①-②-|
口③⑤④ |③-④-|
口⑦⑥⑤ |⑤⑥⑦-|
口⑧口⑨ |⑧-⑨-|
74
①⑨⑤⑬ |①②③④|
②⑩⑥⑭ |⑤⑥⑦⑧|
③⑪⑦⑮ |⑨⑩⑪⑫|
④⑫⑧⑯ |⑬⑭⑮⑯|
75
①口口口 |①---|
口口口口 |----|
①口口口 |----|
口口口口 |----|

accuracy: 100%
最終更新:2022年05月07日 02:58