アットウィキロゴ
Life Without You
BEMANI Sound Team "Sota Fujimori"

BASIC

Level: 4
BPM: 150
Notes: 248

1
口口口口 |----|
口口口口 |----|
口口口口 |----|
口口口口 |----|
2
口口口口 |①---|
口口口口 |----|
口①①口 |----|
口②②口 |--②-|
3
口口口口 |----|
口口口口 |----|
口口口口 |----|
口口口口 |----|
4
口口口口 |①---|
①口口① |----|
口口口口 |----|
口口口口 |----|
5
②口口② |①---|
口口口口 |----|
口口口口 |--②-|
口①①口 |----|
6
口②口口 |①---|
口③口口 |②---|
口①口口 |③---|
口口口口 |----|
7
口口②口 |①---|
口口③口 |②---|
口口①口 |③---|
口口口口 |----|
8
口③③口 |①---|
①口口② |②---|
口口口口 |③---|
口④④口 |--④-|
9
口口口口 |----|
口口口口 |----|
口口口口 |----|
口口口口 |----|
10
口口口口 |①---|
口口口口 |----|
②②①① |②---|
口口口口 |----|
11
口口口口 |①---|
①②③口 |②---|
口口口口 |③---|
口口口口 |----|
12
①口口① |①---|
②口口② |----|
口口口口 |②---|
口口口口 |----|
13
口口口口 |①---|
口口口口 |----|
①口口① |②---|
②口口② |----|
14
口口口口 |①---|
①①口口 |----|
口口口口 |②---|
口②②口 |----|
15
口口口口 |①---|
口口①① |----|
口口口口 |②---|
口②②口 |----|
16
口口口口 |①---|
口①①口 |----|
口口口口 |②---|
口②②口 |----|
17
②口口② |①---|
①口口① |----|
口口口口 |②---|
口口口口 |----|
18
口口口口 |----|
口口口口 |----|
口口①① |①---|
口口口口 |----|
19
口口口口 |①---|
口③②① |②---|
口口口口 |③---|
口口口口 |----|
20
①口口① |①---|
②口口② |----|
口口口口 |②---|
口口口口 |----|
21
口口口口 |①---|
口口口口 |----|
①口口① |②---|
②口口② |----|
22
口口口口 |①---|
口口①① |----|
口口口口 |②---|
口②②口 |----|
23
口口口口 |①---|
①①口口 |----|
口口口口 |②---|
口②②口 |----|
24
口口口口 |①---|
口①①口 |----|
口口口口 |②---|
口②②口 |----|
25
②口口② |①---|
①口口① |----|
口口口口 |②---|
口口口口 |----|
26
口口口口 |①---|
口①②口 |②---|
口口③口 |③---|
口口口口 |----|
27
口口口口 |①---|
口口②① |②---|
口口③口 |③---|
口口口口 |----|
28
口口口口 |①---|
①②口口 |②---|
口③口口 |③---|
口口口口 |----|
29
②口口② |①---|
①口口① |----|
口口口口 |②---|
口口口口 |----|
30
口口口口 |①---|
口②①口 |②---|
口③口口 |③---|
口口口口 |----|
31
口口口口 |①---|
①②口口 |②---|
口③口口 |③---|
口口口口 |----|
32
口口口口 |①---|
口口②① |②---|
口口③口 |③---|
口口口口 |----|
33
②口口② |①---|
①口口① |----|
口口口口 |②---|
口口口口 |----|
34
口①①口 |①---|
口口口口 |----|
口②②口 |②---|
口口口口 |----|
35
口口口口 |①---|
口①①口 |----|
口口口口 |②---|
口②②口 |----|
36
口口口口 |①---|
口口口③ |②---|
口④④② |③---|
口口口① |④---|
37
口口口口 |①---|
①口口口 |②---|
②④④口 |③---|
③口口口 |④---|
38
口口口口 |①---|
②②①① |----|
口口口口 |②---|
口口口口 |----|
39
①口口① |①---|
口口口口 |----|
②口口② |②---|
口口口口 |----|
40
口口口口 |①---|
③口口口 |②---|
②④④口 |③---|
①口口口 |④---|
41
口口口口 |①---|
口口口① |②---|
口④④② |③---|
口口口③ |④---|
42
①口口② |①---|
①口口② |----|
口口口口 |②---|
口口口口 |----|
43
口口③口 |①---|
口②口口 |②---|
口口①口 |③---|
口口口口 |----|
44
①①口口 |①---|
口口口口 |----|
②②口口 |②---|
口口口口 |----|
45
口口①① |①---|
口口口口 |----|
口口②② |②---|
口口口口 |----|
46
口口口口 |①---|
口③口① |②---|
④口②口 |③---|
口口口口 |④---|
47
口口口口 |①---|
①口③口 |②---|
口②口④ |③---|
口口口口 |④---|
48
口口口口 |①---|
口口口口 |②---|
口④③口 |③---|
口②①口 |④---|
49
口口口口 |①---|
①口口① |----|
②口口② |②---|
口口口口 |----|
50
口口口口 |----|
口口口口 |----|
口口口口 |----|
口口口口 |----|
51
口口口口 |①---|
①口③口 |②---|
口②口口 |③---|
口④④口 |④---|
52
口口口口 |①---|
口③口① |②---|
口口②口 |③---|
口④④口 |④---|
53
口口口口 |①---|
①口口① |----|
口口口口 |----|
口口口口 |----|
54
①口口② |①---|
口口口口 |----|
口口口口 |②---|
口口口口 |----|
55
口口口口 |①---|
②①口② |----|
口口①口 |②---|
口口口口 |----|
56
口口口口 |①---|
②口①② |----|
口①口口 |②---|
口口口口 |----|
57
口口口口 |①---|
②①口② |----|
口口①口 |②---|
口口口口 |----|
58
②口口② |①---|
口口①口 |----|
口①口口 |②---|
口口口口 |----|
59
口口口口 |----|
口①①口 |①---|
口①①口 |----|
口②②口 |②---|
60
口口口口 |①---|
①口③口 |②---|
口②口口 |③---|
口④④口 |④---|
61
口口口口 |①---|
①口口① |----|
口口口口 |----|
口口口口 |----|
62
②口口① |①---|
口口口口 |----|
口口口口 |②---|
口口口口 |----|
63
口口口口 |①---|
②口①② |----|
口①口口 |②---|
口口口口 |----|
64
口口口口 |①---|
②①口② |----|
口口①口 |②---|
口口口口 |----|
65
口口口口 |①---|
②口①② |----|
口①口口 |②---|
口口口口 |----|
66
②口口② |①---|
口①口口 |----|
口口①口 |②---|
口口口口 |----|
67
口①①口 |①---|
口口口③ |--②-|
口口口③ |----|
口②②口 |--③-|
68
②②②② |----|
①口口口 |--①-|
①口口口 |----|
口口口口 |--②-|
69
口口口口 |----|
口口口口 |----|
口口口口 |----|
口口口口 |----|
70
口口口口 |----|
口口口口 |----|
口口口口 |----|
口口口口 |----|

accuracy: 100%
最終更新:2022年05月04日 04:26