アットウィキロゴ
Life Without You
BEMANI Sound Team "Sota Fujimori"

ADVANCED

Level: 7
BPM: 150
Notes: 405

1
口口口口 |----|
口口口口 |----|
口口口口 |----|
口口口口 |----|
2
口②②口 |①---|
①口口① |----|
口口口口 |--②-|
口③③口 |--③-|
3
口口口口 |----|
口口口口 |----|
口口口口 |----|
口口口口 |----|
4
口②②口 |①---|
口口①口 |----|
口①口口 |----|
口口口口 |②---|
5
口口口口 |①---|
口②口口 |----|
口口②口 |--②-|
口①①口 |----|
6
口口口① |①-②-|
口口③② |③---④|
口口口口 |----|
口④④口 |----|
7
①口口口 |①-②-|
②③口口 |③---④|
⑤口口⑤ |----|
口④④口 |--⑤-|
8
⑤口口口 |--①-|
口①口④ |②-③-|
口⑥②口 |④---⑤|
口③⑥口 |--⑥-|
9
②口口② |----|
口口口口 |----|
口口口口 |①---|
①口口① |②---|
10
口口④④ |①---|
①③③口 |②---|
口口口口 |③---|
口②口口 |④---|
11
④④口口 |①---|
口③③① |②---|
口口口口 |③---|
口口②口 |④---|
12
口④口口 |①---|
①口④① |②---|
③口口③ |③---|
口②②口 |----④|
13
口口口口 |----|
口口口口 |----|
口①口口 |①---|
口口①口 |----|
14
口口口① |①---|
口②③① |----|
口④⑤口 |②-③-|
口口口口 |④-⑤-|
15
①①口口 |①---|
口③②口 |----|
口⑤④口 |②-③-|
口口口口 |④-⑤-|
16
口口口① |①---|
口②③① |----|
口④⑤口 |②-③-|
口口口口 |④-⑤-|
17
③①口口 |①---|
①③口口 |②---|
口口口口 |③---|
口②②口 |----|
18
③③口口 |----|
口②②口 |①---|
①①①① |②---|
口口口口 |③---|
19
口口④④ |①---|
①③③口 |②---|
口口口口 |③---|
口②口口 |④---|
20
口口④口 |①---|
①④口① |②---|
③口口③ |③---|
口②②口 |----④|
21
口口口口 |----|
口口口口 |----|
口口①口 |①---|
口①口口 |----|
22
口口口口 |----|
①③②① |①---|
①⑤④① |②-③-|
口口口口 |④-⑤-|
23
口口①① |①---|
口②③口 |----|
口④⑤口 |②-③-|
口口口口 |④-⑤-|
24
①口口口 |①---|
①③②口 |----|
口⑤④口 |②-③-|
口口口口 |④-⑤-|
25
口口①③ |①---|
④⑤③① |②---|
口口口口 |③---|
口②②口 |④-⑤-|
26
口①口口 |①---|
口口⑤④ |②---|
口②口口 |③---|
口口口③ |④-⑤-|
27
口口①口 |①---|
④⑤口口 |②---|
口口②口 |③---|
③口口口 |④-⑤-|
28
①口口口 |①---|
口口⑤④ |②---|
②口口口 |③---|
口口口③ |④-⑤-|
29
③口口① |①---|
口口口口 |②---|
④口口② |③---|
口口口口 |④---|
30
口①①口 |①---|
口口④③ |----|
口口口口 |②---|
口口②② |③-④-|
31
口口①口 |①---|
④⑤口口 |②---|
口口②口 |③---|
③③口口 |④-⑤-|
32
①口口口 |①---|
口口⑤④ |②---|
②口口口 |③---|
口口③③ |④-⑤-|
33
③口口① |①---|
口口口口 |②---|
④口口② |③---|
口口口口 |④---|
34
口③③口 |①---|
②②①① |②---|
口④④口 |③---|
口口口口 |④---|
35
口口口口 |①---②|
口口①口 |--③-|
④⑤口口 |----|
②口口③ |④-⑤-|
36
⑤⑥⑦口 |①-②-|
口④③口 |③-④-|
口口口口 |⑤-⑥-|
口②①口 |⑦---|
37
口口口⑤ |①-②-|
口③④⑥ |③-④-|
口口口⑦ |⑤-⑥-|
口①②口 |⑦---|
38
口口⑦⑥ |①-②-|
口⑤口口 |③-④-|
口③④口 |⑤---|
口①②口 |⑥-⑦-|
39
①②口口 |①-②-|
⑤④③口 |③-④-|
口口口口 |⑤---|
⑥口口⑥ |⑥---|
40
口⑦⑥⑤ |①-②-|
口③④口 |③-④-|
口口口口 |⑤-⑥-|
口①②口 |⑦---|
41
⑤口口口 |①-②-|
⑥④③口 |③-④-|
⑦口口口 |⑤-⑥-|
口②①口 |⑦---|
42
②②①① |①---|
口口口口 |----|
口口口口 |②---|
口口口口 |----|
43
⑦⑤⑥口 |①-②-|
口④①口 |③-④-|
口③②口 |⑤-⑥-|
口口口口 |--⑦-|
44
口口口口 |--①-|
口口口④ |②-③-|
①⑥⑤口 |--④-|
口②③口 |⑤-⑥-|
45
口口口口 |①---|
③口①④ |②---|
口⑤⑤口 |③---④|
口②②口 |--⑤-|
46
①口口② |①---|
口①②口 |----|
口口口口 |②---|
口口口口 |----|
47
口①②口 |①-②-|
口③④口 |③-④-|
口⑤⑥口 |⑤-⑥-|
口⑦⑧口 |⑦-⑧-|
48
口②②口 |①---|
①口口③ |②---|
①口口③ |③---|
口④④口 |④---|
49
口口口口 |①---|
①④②口 |----|
①③⑤口 |②-③-|
口口口口 |④-⑤-|
50
口口口口 |----|
①①①① |----|
口口口口 |----|
口口口口 |①---|
51
①③口口 |①---|
③口口口 |②---|
口⑤④② |③---|
口口口口 |④-⑤-|
52
口口口口 |①---|
口口①口 |②---|
②口口口
口②口口

口④口口
口口⑤口
口口口③ |③---|
口口③口 |④-⑤-|
53
口口②口 |①---|
口口口② |②---|
口①口口 |----|
口口口口 |----|
54
②口口③ |--①-|
口口口口 |----|
口口口口 |②---|
口①①口 |③---|
55
口口口口 |①---|
①口②② |----|
口①口口 |②---|
口口③③ |③---|
56
口口②② |①---|
①口口口 |----|
口①③③ |②---|
口口口口 |③---|
57
①口口口 |①---|
口①②② |----|
口口口口 |②---|
口口③③ |③---|
58
③口口③ |①---|
口口口口 |②---|
①①②② |③---|
口④④口 |④---|
59
口口②口 |----|
口口口② |①---|
①③④① |②---|
①口口① |③-④-|
60
口口口口 |①---|
口①口口 |②---|
口口口②
口口②口

口口④口
口⑤口口
③口口口 |③---|
口③口口 |④-⑤-|
61
口②口口 |①---|
②口口口 |②---|
口口①口 |----|
口口口口 |----|
62
③口口② |--①-|
口口口口 |----|
口口口口 |②---|
口①①口 |③---|
63
口口口口 |①---|
②②口① |----|
口口①口 |②---|
③③口口 |③---|
64
②②口口 |①---|
口口口① |----|
③③①口 |②---|
口口口口 |③---|
65
口口口① |①---|
②②①口 |----|
口口口口 |②---|
③③口口 |③---|
66
③④④③ |①---|
口④④口 |②---|
②②①① |③---|
口口口口 |④---|
67
口口口④ |①---|
②口④② |②-③-|
口③③口 |----|
口①①口 |--④-|
68
①口口口 |--①-|
口①口口 |--②-|
口口口口
口②②口

④④④④
口口口口
③③③③ |--③-|
口口口口 |--④-|
69
口口口口 |----|
口口口口 |----|
口口口口 |----|
口口口口 |----|
70
口口口口 |①---|
口口口口 |----|
口①①口 |----|
口①①口 |----|

accuracy: 100%
最終更新:2022年04月22日 17:40