アットウィキロゴ
Life Without You
BEMANI Sound Team "Sota Fujimori"

EXTREME

Level: 10.1
BPM: 150
Notes: 766

1
口口口口 |----|
口口口口 |----|
口口口口 |----|
口口口口 |----|
2
①口口① |①---|
口口③口 |----|
①③②① |②-③-|
口口口④ |--④-|
3
口口口口 |--①-|
①②口口 |②-------③-|
口口②口
③口口口

口口口口
⑤口口口
口口口口 |--④-|
口口口④ |---⑤------|
4
口口口① |①--②-③--④-|
口②口口 |--------⑤-|
口口③⑤
④口口口

口⑩口口
口⑧⑥口
口⑥⑨口 |--⑥-|
口口⑦口 |⑦--⑧-⑨--⑩-|
5
口口①口 |①---|
口③⑤口 |--------②-|
口口③口 |--③-|
②④口口 |-----④--⑤-|
6
口①口口 |①----②--③-|
口⑤⑨② |④--⑤-⑥--⑦-|
口③⑥口 |----|
⑦⑧④口 |-----⑧--⑨-|
7
口①口口 |①----②--③-|
⑦⑤口② |④--⑤-⑥--⑦-|
口③⑥⑧ |----|
口口④⑧ |--⑧-|
8
⑤口口⑥ |-----①----|
口③⑥② |②--③-④----|
⑦口④口 |⑤-------⑥-|
①①⑦口 |--⑦-|
9
口⑥口口 |----|
②④⑤① |①---|
口口③口 |②--③-④--⑤-|
口口口口 |⑥---|
10
②口口① |①---|
口口口口 |②---|
①口口②
口①②口

口⑤③口
③口⑤口
口③④口 |③---|
口④口口 |④-⑤-|
11
②口⑤① |①---|
③⑤口③ |②---|
①④③② |③---|
①口④② |④-⑤-|
12
①①口① |①---|
口口口口 |②---|
口口口口
②②口②

口⑤口口
③④③④
⑤③④口 |③---|
口口口口 |④-------⑤-|
13
⑥口⑥① |--①-|
②⑥③⑥ |②--③-④----|
口④口⑤ |⑤-⑥-|
⑦口口⑦ |---⑦------|
14
口①口① |①---|
①口①口 |②---|
口口口口
口②②口

③⑤③⑤
口④⑥口
口口口口 |③-④-|
口口口口 |⑤-⑥-|
15
④口③口 |①---|
④口⑤② |②③--|
⑥①口① |④-⑤-|
⑥口⑦口 |⑥-⑦-|
16
口①口口 |①---|
口①口口 |②---|
口口②口
口②口口

口⑥口⑤
口口口⑤
口④口③ |③-④-|
口口口③ |⑤-⑥-|
17
①⑤①口 |①---|
口③口③ |②---|
③口③口 |③---|
口②④② |④-⑤-|
18
①④②① |----|
②口④口 |①---|
①②③① |②---|
口③口口 |③-④-|
19
②口⑤① |①---|
③⑤口③ |②---|
①④③② |③---|
①口④② |④-⑤-|
20
①①口① |①---|
口口口口 |②---|
口口口口
②②口②

口⑤口口
③④③④
⑤③④口 |③---|
口口口口 |④-------⑤-|
21
⑥口⑥① |--①-|
②⑥③⑥ |②--③-④----|
口④口⑤ |⑤-⑥-|
⑦口口⑦ |---⑦------|
22
口口口① |①---|
②口①口 |②---|
②口口口
口②②口

③⑤③⑤
口④⑥口
口口口口 |③-④-|
口口口口 |⑤-⑥-|
23
④口③口 |①---|
④口⑤② |②③--|
⑥①口① |④-⑤-|
⑥口⑦口 |⑥-⑦-|
24
口①口口 |①---|
口①口口 |②---|
口口②口
口②口口

口⑥口⑤
口口口⑤
口④口③ |③-④-|
口口口③ |⑤-⑥-|
25
①⑤①口 |①---|
口③口③ |②---|
③口③口 |③---|
口②④② |④-⑤-|
26
口口⑦① |①--②|
③⑤口④ |③---|
口②口① |④-⑤-|
③⑥口④ |⑥-⑦-|
27
①⑦口口 |①--②|
④口⑤③ |③---|
①口②口 |④-⑤-|
④口⑥③ |⑥-⑦-|
28
口口⑦① |①--②|
③⑤口④ |③---|
口②口① |④-⑤-|
③⑥口④ |⑥-⑦-|
29
①④口④ |①--②|
⑥口口③ |③---|
①⑤②口 |④--⑤|
⑥口口③ |⑥---|
30
②⑥口口 |①--②|
③①④口 |----|
口口②口 |③-④-|
③口⑤① |⑤-⑥-|
31
口口⑦① |①--②|
③⑤口④ |③---|
口②口① |④-⑤-|
③⑥口④ |⑥-⑦-|
32
①⑦口口 |①--②|
④口⑤③ |③---|
①口②口 |④-⑤-|
④口⑥③ |⑥-⑦-|
33
④口④① |①--②|
③口口⑥ |③---|
口②⑤① |④--⑤|
③口口⑥ |⑥---|
34
口①③① |①---|
②口口口 |②-③-|
口口口口
①口①口

口口口口
口⑥口⑤
口④口口 |④-⑤-|
口口⑦口 |⑥-⑦-|
35
①口②口 |①-------②-|
②口①⑤ |--③-|
口③口口 |--④-|
④口⑥③ |⑤-⑥-|
36
②④口口 |①-②-|
④②口口 |③-④-|
①③口口
口口口口

口口⑥口
口口口⑥
⑦口⑤口 |⑤-⑥-|
口⑦口口 |⑦---|
37
口⑥④② |①-②-|
⑥口②④ |③-④-|
口⑤③① |⑤-⑥-|
口⑦⑦口 |⑦---|
38
③口口④ |①-②-|
口⑥②口 |③-④-|
①口口⑤ |⑤---|
口⑦口口 |⑥-⑦-|
39
口②①⑤ |①-②-|
②口口① |---③-④----|
口④③⑤ |⑤---|
⑥⑦⑥口 |⑥-⑦-|
40
②④口口 |①-②-|
④②口口 |③-④-|
①③口口
口口口口

口口⑥口
口口口⑥
⑦口⑤口 |⑤-⑥-|
口⑦口口 |⑦---|
41
口⑥④② |①-②-|
⑥口②④ |③-④-|
口⑤③① |⑤-⑥-|
口⑦⑦口 |⑦---|
42
①口口① |①---|
③④口② |②--③-④--⑤-|
①口口①
口口口⑤

口口口口
口口⑨口
⑩⑪口⑫ |⑥--⑦-⑧--⑨-|
⑦⑧⑥口 |---⑩-⑪--⑫-|
43
口②④③ |①----②--③-|
口⑤口⑥ |④----⑤--⑥-|
口口①口
口口口口

口口⑪口
⑧口⑦口
口⑩口口 |⑦--⑧----⑨-|
⑨口⑨口 |-----⑩--⑪-|
44
①②口口 |---①-②--③-|
⑤⑥④③ |④--⑤-⑥--⑦-|
⑧⑨⑦口 |---⑧-⑨--⑩-|
⑫⑬⑪⑩ |⑪--⑫-⑬----|
45
⑧②③口 |①--②-③--④-|
口④⑤⑦ |⑤--⑥------|
⑧⑥口① |⑦-------⑧-|
⑨口⑨⑦ |--⑨-|
46
口⑥⑦口 |①--②-③--④-|
⑪④⑤口 |⑤--⑥-⑦----|
⑧②③① |⑧--⑨-⑩--⑪-|
⑫⑩⑨口 |---⑫------|
47
⑬⑪⑥① |①-②③-④--⑤-|
口口⑦② |⑥-⑦⑧-⑨--⑩-|
⑩⑤⑧③ |⑪-⑫-|
⑭⑫⑨④ |⑬-⑭-|
48
⑧⑦⑨⑥ |①---|
口口口⑤ |②--③-④----|
④③口② |⑤---|
口口口① |⑥--⑦-⑧--⑨-|
49
口口口口 |①---|
口口①口 |②---|
口口口口
口②②口

⑤口口③
口③⑤口
口⑥④口 |③-④-|
④口口⑥ |⑤-⑥-|
50
①口口① |----|
口口口口 |----|
①口口① |----|
口口口口 |①---|
51
口口口口 |①---|
①②①② |②---|
口口口口
②①②①

③口③⑤
口口口口
口③④③ |③-④-|
口口口⑥ |⑤-⑥-|
52
②⑤②⑤ |①---|
⑥①⑥① |②-③-|
④②③② |④---|
①④①口 |⑤-⑥-|
53
②口②口 |①---|
口③口口 |②-③-|
②①口①
口口口口

口口口口
⑥口口⑥
口⑧⑦口 |---④-⑤----|
口⑤④口 |⑥----⑦-⑧--|
54
⑤⑥⑥① |①-②-|
⑥⑤①④ |③-------④-|
⑤口口① |⑤---|
③口口② |⑥---|
55
口口口① |①---|
口口①口 |②---|
口①口口
口②②口

⑤口口⑥
③口口④
④口口③ |③-④-|
⑥口口⑤ |⑤-⑥-|
56
⑥①①⑤ |①---|
④②口③ |②---|
③口②④ |③-④-|
⑤①①⑥ |⑤-⑥-|
57
口①①口 |①---|
口③②口 |②-③-|
口②③口
口①①口

口⑥口⑦
⑤口口④
④口口⑤ |④-⑤-|
⑦口⑥口 |⑥-⑦-|
58
①口口口 |①---|
口口①② |②---|
口①②口
口②口①

⑤口③口
口③口口
③口口口 |③---|
口口口④ |④-⑤-|
59
④②①② |----|
①口口口 |①---|
②③②① |②-③-|
⑤①口口 |④-⑤-|
60
⑤②⑤② |①---|
①⑥①⑥ |②-③-|
②③②④ |④---|
口①④① |⑤-⑥-|
61
口②口② |①---|
口口③口 |②-③-|
①口①②
口口口口

口口口口
⑥口口⑥
口⑦⑧口 |---④-⑤----|
口④⑤口 |⑥----⑦-⑧--|
62
①⑥⑥⑤ |①-②-|
④①⑤⑥ |③-------④-|
①口口⑤ |⑤---|
②口口③ |⑥---|
63
①口口口 |①---|
口①口口 |②---|
口口①口
口②②口

⑥口口⑤
④口口③
③口口④ |③-④-|
⑤口口⑥ |⑤-⑥-|
64
⑤①①⑥ |①---|
③口②④ |②---|
④②口③ |③-④-|
⑥①①⑤ |⑤-⑥-|
65
口①①口 |①---|
口②③口 |②-③-|
口③②口
口①①口

⑦口⑥口
④口口⑤
⑤口口④ |④-⑤-|
口⑥口⑦ |⑥-⑦-|
66
口口口① |①---|
②①口口 |②---|
口②①口
①口②口

口③④口
口④③④
④口④③ |③---|
口④口口 |④---|
67
②口口② |①---|
③口③口 |②-③-|
口③口③
①口口①

口口口口
口⑦口⑦
⑦口⑦口 |--④⑤|
⑥⑤④口 |⑥-⑦-|
68
②口②口 |--①-|
①口①口 |--②-|
口①口①
口②口②

口③口③
④④④④
口④④口 |--③-|
③口③口 |--④-|
69
口口口口 |----|
口口口口 |----|
口口口口 |----|
口口口口 |----|
70
口口口口 |①---|
口口口口 |----|
口口①① |----|
口口①① |----|

accuracy: 100%
最終更新:2022年05月01日 04:24