アットウィキロゴ
StaRgAZER
BEMANI Sound Team "TAG"

EXTREME

Level: 10.0
BPM: 144
Notes(hold): 658(??)

1
口口口口 |----|
口口口口 |----|
口口口口 |----|
口口口口 |----|
2
口口①口 |①--②|
口④口④ |--③-|
②口口口 |-④--|
口口③口 |⑤---|

口口⑤口
口口口口
口口⑤口
口口口口
3
口①口口 |①--②|
④口④口 |--③-|
口口口② |-④--|
口③口口 |⑤---|

口⑤口口
口口口口
口⑤口口
口口口口
4
口口①口 |①--②|
口④口④ |--③-|
②口口口 |-④--|
口口③口 |⑤---|

口口⑤口
口口口口
口口⑤口
口口口口
5
口①口口 |①--②|
④口④口 |--③-|
口口口② |-④--|
口③口口 |⑤---|

口⑤口口
口口口口
口⑤口口
口口口口
6
口口①① |①--②|
口④口④ |--③-|
②口口口 |-④--|
口口③口 |⑤---|

口口⑤口
口口口口
口口⑤口
口口口口
7
①①口口 |①--②|
④口④口 |--③-|
口口口② |-④--|
口③口口 |⑤---|

口⑤口口
口口口口
口⑤口口
口口口口
8
口口①① |①--②|
口④口④ |--③-|
②口口口 |-④--|
口口③口 |⑤---|

口口⑤口
口口口口
口口⑤口
口口口口
9
①①口口 |①--②|
口口口⑤ |--③-|
②口口口 |④--⑤|
口④③口 |--⑥-|

⑥口口口
口口口口
口口口口
口口口口
10
口口①④ |①--②|
①―<口 |--③-|
口③口② |-④--|
口口口口 |⑤-⑥-|

口口口口
⑤⑥⑤口
口口口口
口口口口
11
口口①口 |①--②|
口口口① |--③-|
②口口口 |-④--|
口②口口 |⑤---|

④口>③
口口口口
口口>③
口口口口

口口口⑤
口口口口
口⑤口⑤
口口口口
12
④①口口 |①--②|
口>―① |--③-|
②口③口 |-④--|
口口口口 |⑤-⑥-|

口口口口
口⑤⑥⑤
口口口口
口口口口
13
④②口② |①--②|
口口口口 |--③-|
①口③③ |-④--|
口①∧∧ |⑤---|

口口口口
口口口口
口⑤⑤⑤
口口口口
14
④①口口 |①--②|
口>―① |--③-|
②口③口 |-④--|
口口口口 |⑤-⑥-|

口口口口
口⑤⑥⑤
口口口口
口口口口
15
③①④③ |①--②|
①⑤口④ |--③-|
⑥口⑤② |--④-|
口⑥②口 |⑤-⑥-|
16
口①口① |①--②|
④>③口 |--③-|
口口>③ |-④--|
②口口口 |⑤-⑥⑦|

口⑥⑦口
口口⑤口
口口口⑤
口⑤口口
17
口口口① |①--②|
口口口∧ |--③-|
口②口口 |-④--|
口口口口 |⑤---|

③口口③
|口④④
∧口口口
口口口口

⑤口口口
口口口口
口口口口
口⑤⑤口
18
∨∨∨口 |----|
①①①口 |----|
①口口 |①---|
口①<口 |----|
19
④③④口 |①---|
①①①⑤ |②-③-|
口①⑤② |④--⑤|
口①口口 |--⑥-|

口口口口
口口口口
∨∨口口
⑥⑥口口
20
口>③① |①---|
③>③ |②---|
③>③ |③---|
②②口② |----|
21
③④①④ |①---|
口①口① |②-③-|
口①②① |④--⑤|
口口口口 |--⑥-|

口口口口
⑤口口口
口⑤∨∨
口口⑥⑥
22
①口口口 |①---|
口口口口 |②---|
口口口口 |③---|
②口②② |----|

口③<口
③<口口
③<③<
口③<口
23
④①④③ |①---|
①口口口 |②-③-|
①②①口 |④--⑤|
口①口口 |--⑥-|

口⑥口口
⑥口口⑤
口口⑤口
口口口口
24
④口④① |--①-|
口②口⑤ |②-③-|
口口口③ |④--⑤|
口口⑤口 |--⑥-|

口口口口
∨∨口口
⑥⑥口口
口口口口
25
口口口① |①---|
口③④⑤ |②-③④|
②②口∧ |⑤---|
口口口② |⑥-⑦-|

口口口口
口口口⑥
口口口口
口⑦⑥口
26
口口口口 |①---|
口口口口 |②---|
①口口口 |③---|
∧口口口 |----|

口口口口
口口口口
②口口②
口口口口

∨∨∨口
③③③口
③口口
口③<口
27
④③④口 |①---|
①①①⑤ |②-③-|
口①⑤② |④--⑤|
口①口口 |--⑥-|

口口口口
口口口口
∨∨口口
⑥⑥口口
28
口>③① |①---|
③>③ |②---|
③>③ |③---|
②②口② |----|
29
③④①④ |①---|
口①口① |②-③-|
口①②① |④--⑤|
口口口口 |--⑥-|

口口口口
⑤口口口
口⑤∨∨
口口⑥⑥
30
①口口口 |①---|
口口口口 |②---|
口口口口 |③---|
②口②② |----|

口③<口
③<口口
③<③<
口③<口
31
④①④③ |①---|
①口口口 |②-③-|
①②①口 |④--⑤|
口①口口 |--⑥-|

口⑥口口
⑥口⑥⑤
口口⑤口
口口口口
32
④口①口 |--①-|
口②口⑤ |②-③-|
④口③口 |④--⑤|
口口口⑤ |--⑥-|

口口口口
∨口∨口
|口|口
⑥口⑥口
33
∨口口口 |----|
④③②口 |①-②③|
口①口口 |④---|
①口①口 |--⑤-|

口口口口
⑤口口口
口口口口
⑤⑤<
34
③口⑥③ |-①--|
口口④口 |②---|
①⑤口② |③-④-|
口②②口 |⑤-⑥-|
35
口③口口 |①-②-|
口①口口 |③-④-|
②口④口 |⑤-⑥-|
口口口口 |⑦-⑧-|

口口口口
口⑥口口
⑧口口⑧
⑤口⑦⑤
36
⑤①⑧⑤ |①-②-|
③口⑥④ |③-④-|
口⑦②口 |⑤-⑥-|
口口口口 |⑦-⑧-|
37
口③口口 |①-②-|
口①口口 |③-④-|
②口④口 |⑤-⑥-|
口口口口 |⑦-⑧-|

口口口口
口⑥口口
⑧口口⑧
⑤口⑦⑤
38
⑤①⑧⑤ |①-②-|
③口⑥④ |③-④-|
口⑦②口 |⑤-⑥-|
口口口口 |⑦-⑧-|
39
口③口口 |①-②-|
口①口口 |③-④-|
②口④口 |⑤-⑥-|
口口口口 |⑦-⑧-|

口口口口
口⑥口口
⑧口口⑧
⑤口⑦⑤
40
⑤①⑧⑤ |①-②-|
③口⑥④ |③-④-|
口⑦②口 |⑤-⑥-|
口口口口 |⑦-⑧-|
41
口③口口 |①-②-|
⑤①口口 |③-④-|
②⑥④口 |⑤-⑥-|
口口口⑤ |⑦-⑧-|

口口口口
口⑧口口
口口口⑦
口口⑦口
42
∨⑤<③ |①-②-|
⑤口口① |③-④-|
①④③口 |⑤--⑥|
口②口口 |--⑦-|

口口口口
口口口⑥
口口口口
口口口⑦
43
口①口口 |①-②-|
①口③口 |③-④-|
④口①② |⑤--⑥|
∧④<口 |⑦-⑧-|

口⑧口⑤
⑧口口口
⑦口⑥口
口⑦口口
44
口口口① |--①-|
口口②口 |②-③-|
口③口④ |④--⑤|
口口口∧ |-⑥⑦-|

口口口口
口⑦口口
口∧口⑥
口⑤口口
45
口口口① |-①--|
③②②口 |②-③④|
④口口口 |⑤---|
⑤<口口 |⑥-⑦-|

⑦<口口
口口口⑥
口口口口
⑥口⑥口
46
②口①口 |①---|
口口口口 |②---|
口②②① |③--④|
口口口口 |--⑤-|

∨③<口
③口口④
口口口口
口口口⑤
47
口①口口 |①-②-|
①口③口 |③-④-|
④口①② |⑤--⑥|
∧④<口 |⑦-⑧-|

口⑧口⑤
⑧口口口
⑦口⑥口
口⑦口口
48
④口④口 |--①-|
口口③⑤ |②-③-|
口②口口 |④--⑤|
口口⑤① |--⑥-|

口口口口
⑥⑥口口
∧∧口口
口口口口
49
口口口① |-①--|
②②口口 |②-③④|
口口②口 |⑤--⑥|
口口口口 |--⑦-|

⑤④③口
∧口口⑥
口口口口
口口口口

⑦口口口
口口口口
口口口口
⑦⑦<
50
③口口③ |-①--|
③口口③ |②---|
①口口② |③---|
口②②口 |----|
51
口④③口 |①②-③|
口口⑤口 |④⑤⑥⑦|
口⑥口口 |⑧---|
②口⑦① |⑨---|

口口口口
⑧∨―<
口|⑨⑧
口⑧口口
52
口①⑤口 |①-②-|
①④③② |③-④-|
⑥⑥口⑤ |⑤--⑥|
口①口口 |--⑦-|

⑦⑦口口
∧∧口口
口口口口
口口口口
53
②②③③ |①---|
口口②① |②---|
口口口口 |③---|
口口①② |④---|

口口口口
口口口口
∨口∨口
④口④口
54
③>③ |①---|
②①②① |②---|
∧∧∧∧ |③---|
①口①口 |④---|

口④口④
③②③②
④>④
口口口口
55
②口②口 |①-②-|
口①口① |----|
口①口① |③---|
口口口口 |④---|

口口口③
③∨―<
口|④口
口③口口
56
口①⑤口 |①-②-|
①④③② |③-④-|
⑥⑥口⑤ |⑤--⑥|
口①口口 |--⑦-|

⑦⑦口口
∧∧口口
口口口口
口口口口
57
②②⑤⑤ |①---|
③口②① |②---|
口口④④ |③--④|
口③①② |--⑤-|
58
①①口口 |①---|
|口口口 |②-③④|
∧口口口 |⑤--⑥|
口口口口 |--⑦-|

②口⑥口
⑤口口口
口④⑦口
③②②口
59
②①口∨ |①---|
口②口③ |②---|
①|口口 |③---|
口∧口口 |④---|

口口口口
口④④④
口口④口
口口④口
60
①口口口 |--①-|
②口④口 |②-③-|
③⑤⑤口 |④--⑤|
口口口④ |--⑥-|

⑥⑥口口
∧∧口口
口口口口
口口口口
61
②②③③ |①---|
口口②① |②---|
口口口口 |③---|
口口①② |④---|

口口口口
口④口④
口∧口∧
口口口口
62
∨口∨口 |①---|
①①①① |②---|
∨③∨③ |③---|
②∧②∧ |④---|

口口口口
②口②口
口④口④
③口③口

口口口口
∨口∨口
④口④口
口口口口
63
②口②口 |①-②-|
口①口① |----|
①口①口 |③---|
口口口口 |④---|

口口口③
③∨―<
口|④口
口③口口
64
口①口口 |①-②-|
①口②口 |③-④-|
口口口口 |⑤---|
口①口口 |⑥-⑦-|

④―<口
口③口⑤
④―<口
口口⑤口

⑥口口口
口口⑥口
⑥⑦口口
口口口⑥
65
口⑤①① |①-②-|
②②口⑥ |③-④-|
口口③③ |⑤--⑥|
④④⑥口 |--⑦-|

口口口口
∨∨口口
⑦⑦口口
口口口口
66
②>―⑤ |①---|
口口④口 |②-③④|
②②口③ |⑤---|
口口口① |--⑥-|

口口口⑥
口口口口
口口口口
⑥⑥<
67
③③③口 |-①--|
口③口口 |②---|
①③口② |③---|
口②②口 |----|
最終更新:2022年04月07日 12:20