アットウィキロゴ
灼熱Beach Side Bunny
DJ Mass MAD Izm*

BASIC

Level: 6
BPM: 153
Notes(hold): 535(12)

1
口口口口 |----|
口口口口 |----|
口口口口 |----|
口口口口 |----|
2
①②口③ |①---|
口口口④ |②---|
口口口⑤ |③--④|
口口口口 |--⑤-|
3
口口③口 |①---|
口口④口 |②---|
口口⑤口 |③--④|
①②口口 |--⑤-|
4
①②口③ |①---|
口口口④ |②---|
口口口⑤ |③--④|
口口口口 |--⑤-|
5
③口口口 |①---|
口②②口 |②---|
口②②口 |③---|
①口口口 |----|
6
口>―① |①---|
口口口口
口口口口
口口口口

口口口②
口口口口 |②---|
口口口口
②―<口

口口口口
口口口口
口口口口 |③---|
③口口口 |----|
7
①―<口 |①---|
口口口口
口口口口
口口口口

②口口口
口口口口 |②---|
口口口口
口>―②

口口口口
口口口口
口口口口 |③---|
口口口③ |----|
8
口>―① |①---|
口口口口
口口口口
口口口口

口口口②
口口口口 |②---|
口口口口
②―<口

口口口口
口口口口
口口口口 |③---|
③口口口 |----|
9
①―<口 |①---|
口口口口
口口口口
口口口口

②口口口
口口口口 |②---|
口口口口
口>―②

口口口口
口口口口
口口口口 |③---|
口口口③ |----|
10
口>―① |①---|
口口口口
口口口口
口口口口

口口口②
口口口口 |②---|
口口口口
②―<口

口口口口
口口③口
口口口口 |③---|
③口口口 |----|
11
①―<口 |①---|
口口口口
口口口口
口口口口

②口口口
口口口口 |②---|
口口口口
口>―②

口口口口
口③口口
口口口口 |③---|
口口口③ |----|
12
③①①③ |①---|
口口口口 |②---|
口口口口 |③---|
④②②④ |④---|
13
④口口④ |①---|
口②②口 |②---|
口①①口 |③---|
口③③口 |④---|
14
口口③③ |①---|
①②④④ |②---|
①②⑤⑤ |③--④|
口口口口 |--⑤-|
15
口⑤④③ |①---|
口⑤④③ |②---|
②②口口 |③--④|
①①口口 |--⑤-|
16
③④⑤口 |①---|
③④⑤口 |②---|
口口②② |③--④|
口口①① |--⑤-|
17
口口口口 |①---|
口口⑤⑤ |②---|
①②④④ |③--④|
①②③③ |--⑤-|
18
①①口口 |①---|
②②口口 |②---|
口⑤④③ |③--④|
口⑤④③ |--⑤-|
19
③③②① |①---|
④④②① |②---|
⑤⑤口口 |③--④|
口口口口 |--⑤-|
20
③④⑤口 |①---|
③④⑤口 |②---|
口口②② |③--④|
口口①① |--⑤-|
21
口口口口 |①---|
口口⑤⑤ |②---|
①②④④ |③--④|
①②③③ |--⑤-|
22
⑤④③② |①-②-|
口口⑥口 |-③--|
口口口口 |④--⑤|
①口口口 |--⑥-|
23
口口口口 |①---|
口口口口 |----|
口口口口 |②---|
口①②口 |----|
24
②③④⑤ |①-②-|
口⑥口口 |-③--|
口口口口 |④--⑤|
口口口① |--⑥-|
25
口口口口 |①---|
口口口口 |②---|
②口口① |③---|
④口口③ |④---|
26
②③④⑤ |①-②-|
口⑥口口 |-③--|
口口口口 |④--⑤|
口口①口 |--⑥-|
27
口口口口 |①---|
口口口口 |----|
口口口口 |②---|
口②①口 |----|
28
⑤④③② |①-②-|
口口⑥口 |-③--|
口口口口 |④--⑤|
①口口口 |--⑥-|
29
口口口口 |①---|
口口口口 |②---|
①口口② |③---|
③口口④ |④---|
30
口⑦口口 |①-②-|
口⑤⑥口 |③-④-|
口③④口 |⑤-⑥-|
口①②口 |⑦---|
31
⑦口口口 |①-②-|
⑤口口⑥ |③-④-|
③口口④ |⑤-⑥-|
①口口② |⑦---|
32
口②①口 |①-②-|
口④③口 |③-④-|
口⑥⑤口 |⑤-⑥-|
口口⑦口 |⑦---|
33
②口口① |①-②-|
④口口③ |③-④-|
⑥口口⑤ |⑤-⑥-|
口口口⑦ |⑦---|
34
口⑦④口 |①-②-|
口③⑥口 |③-④-|
口⑤②口 |⑤-⑥-|
口①口口 |⑦---|
35
⑦口口④ |①-②-|
③口口⑥ |③-④-|
⑤口口② |⑤-⑥-|
①口口口 |⑦---|
36
口口①口 |①-②-|
口⑥③口 |③-④-|
口④⑤口 |⑤-⑥-|
口②⑦口 |⑦---|
37
口口口① |①-②-|
⑥口口③ |③-④-|
④口口⑤ |⑤-⑥-|
②口口⑦ |⑦---|
38
口①口④ |①-②-|
口口②⑤ |③---|
口③口⑥ |④--⑤|
口口口口 |--⑥-|
39
④口口口 |①-②-|
⑤口③口 |③---|
⑥②口口 |④--⑤|
口口①口 |--⑥-|
40
口口①④ |①-②-|
口②口⑤ |③---|
口口③⑥ |④--⑤|
口口口口 |--⑥-|
41
④口口口 |①-②-|
⑤口③口 |③---|
⑥②口口 |④--⑤|
口口①口 |--⑥-|
42
口②①口 |①-②-|
口④③⑥ |③-④-|
口口⑤⑦ |⑤--⑥|
口口口口 |--⑦-|
43
④口口口 |①-②-|
⑤口③口 |③---|
⑥②口口 |④--⑤|
口口①口 |--⑥-|
44
口口①④ |①-②-|
口②口⑤ |③---|
口口③⑥ |④--⑤|
口口口口 |--⑥-|
45
⑦口口口 |①-②-|
⑥口口口 |③-④-|
⑤③④口 |⑤--⑥|
口①②口 |--⑦-|
46
口口口① |①-②-|
口⑦②口 |③-④-|
口③⑥口 |⑤-⑥-|
④口口⑤ |⑦---|
47
口口口口 |①-②-|
④⑥②口 |③-④-|
⑦③⑤① |⑤-⑥-|
口口口口 |⑦---|
48
④⑥②口 |①-②-|
口口口口 |③-④-|
口口口口 |⑤-⑥-|
⑦③⑤① |⑦---|
49
④口口⑤ |①-②-|
口③⑥口 |③-④-|
口⑦②口 |⑤-⑥-|
口口口① |⑦---|
50
口②①口 |①-②-|
③口口口 |③-④-|
④口口⑦ |⑤-⑥-|
口⑤⑥口 |⑦---|
51
⑦口口口 |①-②-|
⑥①②口 |③-④-|
⑤④③口 |⑤-⑥-|
口口口口 |⑦---|
52
口⑥⑤口 |①-②-|
⑦口口④ |③-④-|
口口口③ |⑤-⑥-|
口①②口 |⑦---|
53
口⑥⑦口 |①-②-|
⑤口口口 |③-④-|
④口口① |⑤-⑥-|
口③②口 |⑦---|
54
口⑤④③ |①---|
口⑤④③ |②---|
②②口口 |③--④|
①①口口 |--⑤-|
55
口口口口 |①---|
⑤⑤口口 |②---|
④④②① |③--④|
③③②① |--⑤-|
56
口口①① |①---|
口口②② |②---|
③④⑤口 |③--④|
③④⑤口 |--⑤-|
57
①②③③ |①---|
①②④④ |②---|
口口⑤⑤ |③--④|
口口口口 |--⑤-|
58
口口口口 |①---|
口口⑤⑤ |②---|
①②④④ |③--④|
①②③③ |--⑤-|
59
①①口口 |①---|
②②口口 |②---|
口⑤④③ |③--④|
口⑤④③ |--⑤-|
60
③③②① |①---|
④④②① |②---|
⑤⑤口口 |③--④|
口口口口 |--⑤-|
61
③④⑤口 |①---|
③④⑤口 |②---|
口口②② |③--④|
口口①① |--⑤-|
62
⑥口口⑤ |①-②-|
口④口③ |③-④-|
口口②口 |⑤-⑥-|
⑧①口⑦ |⑦-⑧-|
63
⑤口口⑥ |①-②-|
③口④口 |③-④-|
口②口口 |⑤-⑥-|
⑦口①⑧ |⑦-⑧-|
64
⑤口①⑥ |①-②-|
口②口口 |③-④-|
③口④口 |⑤-⑥-|
⑦口口⑧ |⑦-⑧-|
65
⑥①口⑤ |①-②-|
口口②口 |③-④-|
口④口③ |⑤-⑥-|
⑧口口⑦ |⑦-⑧-|
66
口口④口 |①---|
口口③口 |②---|
口口②口 |③---|
口口①口 |④---|
67
口④口口 |①---|
口③口口 |②---|
口②口口 |③---|
口①口口 |④---|
68
口口口④ |①---|
口口口③ |②---|
口口口② |③---|
口口口① |④---|
69
③口口④ |①---|
口②②口 |②---|
口②②口 |③---|
①口口口 |④---|
70
③④⑤⑥ |①---|
口口口口 |②---|
口②②口 |③-④-|
口①①口 |⑤-⑥-|
71
口口口口 |①---|
⑥⑤④③ |②---|
①②口口 |③-④-|
①②口口 |⑤-⑥-|
72
③口⑤口 |①---|
口④口⑥ |②---|
口口②① |③-④-|
口口②① |⑤-⑥-|
73
口⑤口③ |①---|
⑥口④口 |②---|
①①口口 |③-④-|
②②口口 |⑤-⑥-|
74
口口⑧⑦ |①-②-|
口口⑥⑤ |③-④-|
口口④③ |⑤-⑥-|
口口②① |⑦-⑧-|
75
⑦⑧口口 |①-②-|
⑤⑥口口 |③-④-|
③④口口 |⑤-⑥-|
①②口口 |⑦-⑧-|
76
口⑧⑦口 |①-②-|
口⑥⑤口 |③-④-|
口④③口 |⑤-⑥-|
口②①口 |⑦-⑧-|
77
口口口⑦ |①-②-|
⑥口口⑤ |③-④-|
④口口③ |⑤-⑥-|
②口口① |⑦---|
最終更新:2022年04月07日 12:35