アットウィキロゴ
灼熱Beach Side Bunny
DJ Mass MAD Izm*

ADVANCED

Level: 9.6
BPM: 153
Notes(hold): 846(44)

1
口口口口 |----|
口口口口 |----|
口口口口 |----|
口口口口 |----|
2
④口口② |①-②-|
口⑤⑤口 |-③④-|
⑦口③口 |⑤--⑥|
①①口⑥ |--⑦-|
3
口④口口 |①---|
③口④口 |②-③-|
口口②口 |④--⑤|
⑥①口⑤ |--⑥-|
4
④口口② |①-②-|
口口口口 |-③④-|
口①③口
口口口口

口口口⑦
口⑤⑤口
⑦口口口 |⑤--⑥|
口口口⑥ |--⑦-|
5
口④口口 |①---|
③②②口 |②-③-|
口②②口 |④---|
口①口口 |----|
6
――① |①---|
口口口口
口口口口
口口口口

口口口②
口口口口 |②---|
口口口口
②――<

口口口口
口⑤④③
口口口口 |③--④|
③口口口 |--⑤-|
7
①――< |①---|
口口口口
口口口口
口口口口

②口口口
口口口口 |②---|
口口口口
――②

口口口口
口口口口
③④⑤口 |③--④|
口口口③ |--⑤-|
8
――① |①---|
口口口口
口口口口
口口口口

口口口②
口口口口 |②---|
口口口口
②――<

口口口口
口⑤④③
口口口口 |③--④|
③口口口 |--⑤-|
9
①――< |①---|
口口口口
口口口口
口口口口

②③口口
口口口口 |②-③-|
口口口口
――②

口口口口
口口口口
④⑤⑥口 |④--⑤|
口口口④ |--⑥-|
10
――① |①---|
口①口口
口口口口
口口口口

口口口②
口口②口 |②---|
口口口口
②――<

口口口口
口口口口
口⑤④③ |③--④|
③口口口 |--⑤-|
11
①――< |①---|
口口①口
口口口口
口口口口

②口口口
口②口口 |②---|
口口口口
――②

口口口口
口⑥口口
③④⑤口 |③--④|
口口口③ |--⑤⑥|
12
口⑤口① |①-②-③-|
②口⑥口 |④---|
口⑦口③ |⑤-⑥-⑦-|
④口⑧口 |⑧---|
13
④④①① |①-②-③-|
②②⑤⑤ |④-⑤-⑥-|
⑥⑥③③
口口口口

∨口⑨⑨
⑩⑩口口
口口口口 |⑦-⑧-⑨-|
⑧⑧⑦⑦ |⑩---|
14
③④⑤口 |①---|
①口口① |②---|
③④⑤口 |③--④|
②口口② |--⑤-|
15
口口口口 |①---|
口①①口 |②---|
②口口②
口口口口

口口口口
口⑤④③
口口口口 |③--④|
口⑤④③ |--⑤-|
16
口口口① |①---|
②口口口 |②---|
口①口②
口口口口

③④⑤口
口口口口
③④⑤口 |③--④|
口口口口 |--⑤-|
17
④口口④ |①-②-|
③①①② |③-④-|
口口口口
③口口②

口口口口
口⑥⑨口
口⑧⑦口 |⑤--⑥|
口⑤⑤口 |⑦⑧⑨-|
18
⑦⑥⑤④ |①-②③|
③口口② |④-⑤-⑥-⑦--⑧--|
口口⑧口
①口口口

口口口口
口⑪⑫口
口口口口 |⑨⑩-⑪|
⑬⑨⑩⑭ |⑫⑬⑭-|
19
口③②① |①-②-|
⑤④口⑤ |③---|
④⑤口④ |④--⑤|
⑥口口⑥ |--⑥-|
20
①③⑥① |①-②-|
⑦⑪②⑩ |③-④⑤|
⑨口口⑧ |-⑥-⑦|
口⑤④口 |⑧⑨⑩⑪|
21
③⑨⑩② |①-②-|
口口⑥口 |③-④-|
口⑦⑤口 |⑤-⑥⑦|
④口⑧① |⑧-⑨⑩|
22
⑤口口② |①-②-|
口③⑦④ |③④--|
①口⑦⑤ |⑤--⑥|
⑥口口⑥ |--⑦-|
23
口①②③ |①-②-|
⑤④口口 |③---|
⑥⑥口口 |④--⑤|
④⑤口口 |--⑥-|
24
③①①② |①-②-|
口⑦⑦④ |③④--|
口⑥口⑤ |⑤--⑥|
口⑤口⑥ |--⑦-|
25
②④口口 |①-②-|
口口口口 |③-④-|
口口口口
①③口口

口口口口
口口⑥口
口⑥口口 |⑤--⑥|
⑦口⑤⑦ |--⑦-|
26
口口口② |①-②-|
口③口④ |③④--|
①口①口
口口口口

⑤口口口
口口⑦口
口口⑦⑤ |⑤--⑥|
⑥口口⑥ |--⑦-|
27
口①②③ |①-②-|
⑤④口口 |③---|
⑥⑥口口 |④--⑤|
④⑤口口 |--⑥-|
28
③①①② |①-②-|
口⑦⑦④ |③④--|
口⑥口⑤ |⑤--⑥|
口⑤口⑥ |--⑦-|
29
②④口口 |①-②-|
口口口口 |③-④-|
口口⑥⑥ |⑤--⑥|
①③⑤口

口口口口
口口口口
口口口口
⑦――< |⑦-⑧-|

口口口口
口口口口
口口口口
⑧口口口
30
口⑥口⑤ |①②③④|
②口①口 |⑤⑥⑦⑧|
口⑧口⑦
口④口③

口口⑨口
口⑩口口
⑪――< |⑨-⑩-|
口口口口 |⑪-⑫-|

口口口口
口口口口
⑫口口口
口口口口
31
②⑧口口 |①-②-|
④口③口 |③④⑤⑥|
口口口⑦ |⑦-⑧-|
⑥口⑤①

口口口口
口口口口
⑨――<
口口口口 |⑨-⑩-|

口口口口
口口口口
⑩口口口
口口口口
32
②口口① |①②③④|
口⑥⑤口 |⑤⑥⑦-|
口④③口
口口口⑦

口⑨口口
⑧口口口
口口口口 |⑧-⑨-|
⑩――< |⑩-⑪-|

口口口口
口口口口
口口口口
⑪口口口
33
⑥口口⑤ |①-②-③-④--⑤--|
口口口口 |⑥-⑦-|
④③②①
口口⑦口

口⑧口口
口口⑨口
口口口口 |⑧-⑨-|
――⑩ |⑩-⑪-|

口口口口
口口口口
口口口口
口口口⑪
34
⑤④③② |①--②③④|
①口口口 |⑤⑥⑦-|
口⑦⑥口
口口口口

口口口口
⑩――<
口口口⑧ |⑧-⑨-|
口口⑨口 |⑩-⑪-|

口口口口
⑪口口口
口口口口
口口口口
35
④③②① |①-②-③-④--⑤--|
口口口口 |⑥-⑦⑧|
口⑥⑤口
口⑦⑧口

口口口口
⑨⑩⑪⑫
口口口口 |---⑨-⑩-⑪-⑫--|
⑬――< |⑬-⑭-|

口口口口
口口口口
口口口口
⑭口口口
36
⑥②⑤① |①②③④|
⑧口口口 |⑤⑥⑦-|
口④⑦③ |⑧-⑨-|
口⑨口口

口口口口
――⑩
口口口口
口口口口 |⑩-⑪-|

口口口口
口口口⑪
口口口口
口口口口
37
⑨①②⑩ |①②③④|
⑪③④⑫ |⑤⑥⑦⑧|
⑬⑤⑥⑭ |⑨⑩⑪⑫|
⑮⑦⑧⑯ |⑬⑭⑮⑯|
38
口①口口 |①-②-|
口②④口 |③-④⑤|
⑤口口口
口③口口

⑥⑨口口
口口口口
口口⑦口 |-⑥-⑦|
⑧口口口 |⑧-⑨-|
39
口口①口 |①-②-|
口④②口 |③-④⑤|
口口口⑤
口口③口

口口⑨⑥
口口口口
口⑦口口 |-⑥-⑦|
口口口⑧ |⑧-⑨-|
40
①⑫口⑧ |①--②③④|
⑨③②口 |⑤⑥⑦⑧|
⑦口⑩⑥ |-⑨-⑩|
⑪⑤④口 |⑪-⑫-|
41
口口①⑧ |①-②-|
口④②口 |③-④-|
口口口口 |⑤--⑥|
⑤⑥③⑦ |⑦-⑧-|
42
①①②口 |①②③④|
③③口④ |⑤⑥⑦⑧|
⑤⑤⑥口
⑦⑦口⑧

⑬口口⑪
口口⑫口
口口口⑨ |⑨⑩-⑪|
口口⑩口 |⑫-⑬-|
43
口④口口 |①-②-|
②②⑤口 |③-④⑤|
①口口口
③③口口

⑧口口口
⑪⑪口⑨
⑩⑥口口 |⑥⑦⑧⑨|
口口⑦口 |⑩-⑪-|
44
⑩②⑤口 |①-②③|
口⑥⑨口 |④-⑤-|
口⑧⑦③ |-⑥⑦⑧|
④口口① |⑨-⑩-|
45
⑥②④口 |①-②-|
口⑦⑦口 |③-④-|
口⑦⑦口 |⑤--⑥|
⑤①③口 |⑦---|
46
口⑥⑦① |①-②③|
④口口⑤ |④⑤⑥⑦|
②口口③
口口口口

口口口口
口口口口
―⑨口 |⑧-⑨-|
口⑧口口

口口口口
口⑩―<
口口⑩口
口口口口 |⑩-⑪⑫|

口口口⑫
口⑪口口
口口口口
口口口口
47
口口口口 |①②③④|
③口口④ |⑤-⑥⑦|
⑤―<口
①口口②

口⑦⑥口
口口口口
⑥口口口
口口口口

口口口口
口⑨⑧口
―⑩口 |⑧⑨⑩-|
口口口口

口口口口
口口口口
口口⑪口
口⑪―< |⑪-⑫-|

口口口口
口口口口
口口口口
口⑫口口
48
口③②口 |①②③④|
①口④口 |⑤-⑥-|
口口口口
⑤―<口

⑦口口口
口口口⑥
口口口口 |⑦-⑧-|
⑥>―⑧

口口口口
⑨―<口
口口口口
口口口⑨ |⑨-⑩-|

口口口⑩
⑩口口口
口口口口
口口口口
49
口口口口 |①-②③|
口口口口
口口口口
口①―<

口③②口
口口口口
口口口口
口②口口

口口口口
口口④口 |④⑤⑥-|
口⑤口口
―⑥口

⑦――<
口口口口
口口口口 |⑦-⑧-|
口口⑦口

⑧口口口
口口口口
口口口口
口>―⑧

口口口口
口⑨―<
口口口口
口口口⑨ |⑨-⑩-|

口口口口
口⑩口口
口口口口
⑩口口口
50
口⑥⑦① |①-②③|
④口口⑤ |④⑤⑥⑦|
②口口③
口口口口

口口口口
口口口口
―⑨口 |⑧-⑨-|
口⑧口口

口口口口
口⑩―<
口口⑩口
口口口口 |⑩-⑪⑫|

口口口⑫
口⑪口口
口口口口
口口口口
51
口口口口 |①②③④|
③口口④ |⑤-⑥⑦|
⑤―<口
①口口②

口⑦⑥口
口口口口
⑥口口口
口口口口

口口口口
口⑨⑧口
―⑩口 |⑧⑨⑩-|
口口口口

口口口口
口口口口
口口⑪口
口⑪―< |⑪-⑫-|

口口口口
口口口口
口口口口
口⑫口口
52
⑦③②口 |①②③④|
①口④⑥ |⑤-⑥-|
口口口口 |⑦-⑧-|
⑤>―⑧

口口口口
⑨―<口
口口口口
口口口⑨ |⑨-⑩-|

口口口⑩
⑩口口口
口口口口
口口口口
53
口口口口 |①-②③|
口口口口
口口口口
①―<口

口③②口
口口口口
口口口口
②口口口

口口口口
口口④口 |④⑤⑥-|
口⑤口口
―⑥口

⑦口口口
口口口⑧
口口口口 |⑦-⑧-|
口口⑦口

口口口口
口口口口
口口口口
――⑨ |⑨---|
54
口口口② |①-②-|
口③口④ |③④--|
①口口口
口口口①

⑤口口口
口口⑦口
口口⑦⑤ |⑤--⑥|
⑥口口⑥ |--⑦-|
55
口②口③ |①-②-|
口④口口 |③④--|
①口口口
口口口口

口口口口
⑦口口口
⑦⑤口⑤ |⑤--⑥|
口⑥⑥口 |--⑦-|
56
③口口② |①-②-|
口⑦⑦④ |③④--|
口⑥①⑤ |⑤--⑥|
口⑤口⑥ |--⑦-|
57
②口⑥③ |①-②-|
④口口口 |③④--|
⑤口口⑤ |⑤--⑥|
⑥⑦①⑦ |--⑦-|
58
口①口② |①-②-|
口③口④ |③④--|
口口①口
口口口口

⑤口口口
口口⑦口
口口⑦⑤ |⑤--⑥|
⑥口口⑥ |--⑦-|
59
口②口③ |①-②-|
口④口口 |③④--|
①口口口
口口口口

口口口口
⑦口口口
⑦⑤口⑤ |⑤--⑥|
口⑥⑥口 |--⑦-|
60
③口口② |①-②-|
口⑦⑦④ |③④--|
口⑥①⑤ |⑤--⑥|
口⑤口⑥ |--⑦-|
61
②口口③ |①-②-|
④⑦⑦口 |③④--|
⑤⑦⑦⑤ |⑤--⑥|
⑥口①口 |⑦---|
62
②③口口 |①-②-|
口口口口 |③-④⑤|
口口口④
口口⑤①

⑨口口⑥
口口口口
⑦口口口 |-⑥-⑦|
口⑧口口 |⑧-⑨-|
63
口口口口 |①-②-|
口③②① |③-④⑤|
口口口④
口口⑤口

口⑦口⑥
口口口⑧
口口口口 |-⑥-⑦|
口⑨口⑩ |⑧⑨⑩-|
64
①⑨②⑩ |①-②③|
口③⑪口 |④-⑤-⑥-⑦--⑧--|
⑦⑥⑤④ |-⑨-⑩|
口口⑧⑫ |⑪-⑫-|
65
①④②⑪ |①-②-|
⑥口⑤口 |③-④-|
口⑩口⑨ |⑤⑥⑦⑧|
⑧③⑦口 |⑨⑩⑪-|
66
①口口口 |①-②-|
口②口口 |③-④-|
③口口口
口④口口

口⑤口口
口⑧口⑥
口⑩⑨口 |⑤-⑥⑦|
⑦口口口 |-⑧⑨⑩|
67
口口口① |①-②-|
口口②口 |③-④-|
口口口③
口口④口

口口⑤口
⑥口⑧口
口⑨⑩口 |⑤-⑥⑦|
口口口⑦ |-⑧⑨⑩|
68
①⑤③口 |①-②-|
口②⑧④ |③-④-|
口⑨⑩⑥ |⑤-⑥⑦|
⑦口口口 |-⑧⑨⑩|
69
①③③口 |①-②-|
口②口④ |③-④⑤|
口口口口
⑤③③口

口口口口
⑥⑫⑦口
⑩⑧⑪⑨ |-⑥⑦⑧|
口口口口 |⑨⑩⑪⑫|
70
③口①① |①-②-|
口口④口 |③-④⑤|
口⑤口口
②口口口

口⑩口⑧
口口口口
口口⑨口 |⑥⑦-⑧|
口⑦⑥口 |⑨-⑩-|
71
④⑦⑥口 |①-②-|
⑪口③⑩ |③-④⑤|
②⑤口口 |-⑥⑦⑧|
口⑨⑧① |⑨⑩⑪-|
72
口⑧口① |①--②--③-④-⑤-|
口口⑨口 |⑥⑦⑧⑨|
⑥⑤④③
②口口⑦

口口口⑬
⑪口口口
口口口口 |-⑩-⑪|
口⑫⑩口 |⑫-⑬-|
73
⑤③④口 |①②③④|
口①口口 |⑤-⑥-|
口口②⑥
口口口口

口口口口
⑭口口口
⑪⑫⑬口 |⑦⑧⑨⑩⑪⑫|
⑦⑧⑨⑩ |⑬-⑭-|
74
③④⑤⑥ |①--②--③-④-⑤-|
口①口口 |⑥⑦⑧⑨--|
口口口②
⑦⑧⑨口

口口⑮口
⑭口⑪⑬
⑫⑩口口 |⑩⑪⑫⑬|
口口口口 |⑭-⑮-|
75
口口口⑧ |①②③④⑤⑥|
口⑨口口 |⑦-⑧⑨|
口⑤⑥⑦
①②③④

⑪⑬⑫口
⑰口⑩⑯
口口口口 |⑩⑪⑫⑬|
口⑮⑭口 |⑭⑮⑯⑰|
76
⑤⑧口② |①-②③|
⑪④⑦⑨ |④-⑤⑥|
口⑥③口 |⑦⑧-⑨|
口口⑩① |⑩-⑪-|
77
⑦⑧②① |①②③④|
口口口口 |⑤⑥⑦⑧|
口口⑥⑤
③④口口

口口⑬⑬
口口⑩⑨
⑪⑫口口 |⑨⑩⑪⑫|
口口⑬⑬ |⑬---|
最終更新:2022年04月07日 12:35