アットウィキロゴ
灼熱Beach Side Bunny
DJ Mass MAD Izm*

EXTREME

Level: 10.7
BPM: 153
Notes(hold): 1606(667)

①④>② |①-----------②③----------|
□□□□ |④-----⑤⑥----⑦-----------|
□□□□ |⑧⑨----------------⑩⑪----|
□⑦>⑤ |--⑫-|

⑫□□□
⑫⑧⑧<
□⑩⑩<
□□□□

□□□3
□□9□
□□11□
□□□6

□②□① |①---|
□⑤□① |②-③-|
④□□③ |④--⑤|
④⑥□③ |--⑥-|

①④>② |①-----------②③----------|
□□□□ |④-----⑤⑥----⑦-----------|
□□□□ |⑧⑨----------------⑩⑪----|
⑦□>⑤ |--⑫-|

⑫□□□
⑫⑧⑧<
□⑩⑩<
□□□□

□□□3
□□9□
□□11□
□□□6

□②②① |①---|
□□□① |②-③-|
②③④② |④---|
□③④□ |----|

④①>② |①-----------②③----------|
①⑦⑦< |④-----⑤⑥----------------|
④⑨⑨< |⑦⑧----------------⑨⑩----|
⑪⑪>⑤ |--⑪-|

□□□3
□□8□
□□10□
□□□6

□□①② |①---|
□□□① |②---|
□□□② |③--④|
□□□□ |--⑤-|

□□□□
□③③⑤
□④④□
□□⑤□

④①>② |①-----------②③----------|
①⑦⑦< |④-----⑤⑥----------------|
④⑨⑨< |⑦⑧----------------⑨⑩----|
⑪⑪>⑤ |--⑪-|

□□□3
□□8□
□□10□
□□□6

③□①② |①---|
□□□① |②-③-|
□□□② |④--⑤|
□□□□ |--⑥-|

□□□□
⑥□□⑤
□④④□
⑥□□⑤

④①>② |①-----------②③----------|
□④□□ |④-----------⑤⑥----------|
①⑤⑤< |⑦⑧----------------⑨⑩----|
□□□□ |--⑪-|

□⑨□□
⑪□⑦<
□□□□
⑪⑦>⑨

□□□3
□□8□
□□6□
□□□10

□③①② |①---|
④□□① |②---|
③>⑦② |③--④|
④□>⑤ |------------⑤⑥----⑦⑧----|

□□□□
□□□□
□□8□
□□□6

①□>① |①②--------------③④--------------⑤⑥--------------|
□③③< |⑦⑧--------------------------------|
⑤□>⑤ |⑨⑩--------------⑪⑫--------------⑬⑭--------------|
□⑦⑦< |⑮⑯--------------------------------|

□⑨⑨<
⑪□>⑪
□⑬⑬<
⑮□>⑮

□□102
□□412
□□146
□□816

①□>① |①②--------------③④--------------⑤⑥--------------|
□③③< |⑦⑧--------------⑨⑩--------------⑪⑫--------------|
⑤□>⑤ |⑬⑭--------------⑮⑯--------------⑰⑱--------------|
□□□□ |⑲---|

□⑦⑦<
⑨□>⑨
□⑪⑪<
□⑬⑬<

□□82
□□410
□□126
□□14□

⑰□>⑰
□⑲□□
□□□□
⑮□>⑮

□□□18
―⑲□
□□□□
□□□16

□①⑤V |①②----------------------|
①□∧① |③④----------⑤⑥----------|
③□V□ |⑦⑧----------⑨⑩----⑪⑫----|
□③③□ |------------⑬⑭----------|

□□6□
□□12
□□□□
□□4□

⑦□□⑨
□⑪V∧
□⑦⑪⑦
⑪□□∧

□□□□
□□>⑬
□□□□
□□□⑬

□□□10
□□□14
□□128
□□□□

V⑤③□ |①②----------------------|
①∧①□ |③④----------⑤⑥----------|
□V□□ |⑦⑧----------------⑨⑩----|
□③①□ |------------⑪⑫----------|

□6□□
2□□□
□□□□
□4□□

⑨□□⑨
∧□□□
⑦□□⑦
∧□□□

□□□□
⑪□□□
V□□□
⑪□□□

10□□□
□□□□
8□□□
12□□□

□⑤⑤V |①②----------③④----------|
□①∧① |⑤⑥----------⑦⑧----------|
⑤□VV |⑨⑩----------⑪⑫----⑬⑭----|
□①⑦③ |------------⑮⑯----------|

□□6□
□□□2
□□□□
□□84

⑨□□⑪
□⑬V∧
□⑨⑬⑨
⑬□□∧

□□□□
□□>⑮
□□□□
□□□⑮

□□□12
□□□16
□□1410
□□□□

V③□□ |①②----------③④----------|
①∧□□ |⑤⑥----------⑦⑧----------|
①□□□ |⑨⑩----------------⑪⑫----|
□□□□ |⑬⑭----⑮⑯----⑰⑱----------|

⑤□⑤□
□□∧□
□VV□
⑦⑦⑨□

□46□
2□□□
□□□□
□810□

□□□□
⑪<>⑬
⑮<>⑰
□□□□

□□□□
12□□14
16□□18
□□□□

□□①< |①②----------③④----⑤⑥----|
□①□□ |⑦⑧--⑨⑩--⑪⑫--⑬⑭--⑮⑯--⑰⑱--|
□□□□ |⑲⑳----------------AB----|
③<>⑤ |CD----EF----GH----------|

⑦□□
□□⑨<
⑪□□
□□⑬<

⑮<>⑰
□□□□
□V□□
□⑲□□

□□□□
A<>C
E<>G
□□□□

168218
B□10D
F12□H
420146

□③①□ |①②----------③④----------|
□∧∧□ |⑤⑥----------⑦⑧----------|
□□③□ |⑨⑩----------⑪⑫----⑬⑭----|
①□□□ |⑮⑯----------⑰⑱----------|

⑤□□□
∧⑤□□
□□□V
□□□⑦

□□□□
⑨>⑪□
□⑬<⑬
□⑨<□

□□>⑰
□□□□
□□□□
□>⑮□

64218
□□12□
□14□□
□10168

□③①□ |①②----------③④----------|
□∧□□ |⑤⑥----------⑦⑧----⑨⑩----|
V□□□ |⑪-----⑫⑬----------⑭⑮----|
①□□□ |⑯⑰----⑱⑲----⑳A----BC----|

□□□□
V⑤>⑦
⑤□⑨<
□□□□

□4□□
□□□8
6□10□
2□□□

⑫□□□
∧□⑪□
□□□V
□□□⑭

□⑳B□
□∧∧□
□VV□
□⑯⑱□

13AC□
□□□□
□□□□
□171915

□□□③ |①②----------③④----------|
①□□∧ |⑤⑥----------⑦⑧----------|
∧□□□ |⑨⑩----------⑪⑫----⑬⑭----|
□□□□ |⑮⑯----------⑰⑱----⑲⑳----|

⑨□□□
∧>⑪V
V⑬<⑦
⑤□□□

10□□4
2□12□
□14□8
6□□□

□□□⑰
□□V∧
□□⑲□
□>⑮□

□□□18
□□□□
□□20□
□□16□

□>②□ |①-----------②③----------|
②□□□ |④-----⑤⑥----------------|
④□□V |⑦⑧----------------⑨⑩----|
①⑤□⑤ |------------⑪⑫----------|

□⑦□□
□□⑦□
□□∧□
□□□□

□□□⑪
⑪□□∧
□⑨V□
□□⑨□

□□312
□□8□
□□□□
□□106

⑧□⑦□ |①②----③④----⑤⑥----------|
∧①<□ |⑦-----⑧⑨----------------|
□>③□ |⑩⑪----------------⑫⑬----|
□⑤<□ |------------⑭⑮----⑯⑰----|

9□□□
□2□□
□□4□
□6□□

□□□□
□⑫□⑩
V∧□□
⑩□□⑫

□□□□
⑭V□□
∧⑯□□
□□□□

□□□□
1513□□
□17□□
11□□□

□⑦②□ |①-----------②③----------|
□□∧V |④-----⑤⑥----⑦-----------|
□□□⑤ |⑧⑨----------------⑩⑪----|
□④①□ |------------⑫⑬----------|

□□3□
□□□□
□□□6
□□□□

□□⑫⑫
□□⑧∧
⑧□∧V
⑩□□⑩

□□□13
□□9□
□□□□
□□□11

□□□□ |①②----③④----⑤⑥----------|
□①<□ |⑦⑧----⑨⑩----⑪-----⑫⑬----|
□>③□ |⑭⑮----⑯⑰----⑱⑲----⑳-----|
□⑤<□ |AB----------CD----------|

⑦<□□
□□□□
⑨□□
□□⑪□

□□□□
⑭<>⑫
⑱<>⑯
□□□□

□A□⑳
□∧□□
V□□□
C□□□

8B□□
152□13
1910417
D6□□

④>②□ |①-----------②③----------|
□□⑦□ |④-----⑤⑥----------------|
□⑦∧V |⑦⑧----------------⑨⑩----|
□①□⑤ |------------⑪⑫----------|

□⑪□⑪
⑨□□∧
□□V□
□□⑨□

□□312
□□8□
□□□□
□□106

⑧□⑦□ |①②----③④----⑤⑥----------|
∧①<□ |⑦-----⑧⑨----------------|
□>③□ |⑩⑪----------⑫⑬----⑭-----|
□⑤<□ |⑮⑯----------⑰⑱----------|

□□□□
□□⑭⑩
V□□V
⑩□□⑫

□□□□
V□□V
⑮□□⑰
□□□□

9□□□
□2□□
16□418
116□13

□①②□ |①-----------②③----------|
□□∧□ |④-----⑤⑥----⑦-----⑧⑨----|
□□V□ |⑩⑪----⑫⑬----⑭⑮----⑯-----|
④⑦⑤□ |------------⑰⑱----------|

□□□□
⑩⑧<
⑭⑫<
□□□□

□□□⑰
□□□∧
□□□⑯
□□□□

□□318
□119□
□1513□
□□6□

③⑩□□ |①②----------③④----------|
∧∧□⑨ |⑤⑥----⑦⑧----⑨-----⑩⑪----|
V□⑦V |⑫⑬----⑭⑮----⑯⑰----⑱-----|
①□∧⑤ |⑲-⑳-|

□□⑫□
□□∧□
□VV□
□⑭⑯□

――⑲
□□⑱□
□□□□
□□□□

4111320
□□□□
□□8□
215176

VV□□ |①②----③④----⑤⑥----⑦⑧----|
①③□□ |⑨⑩----⑪⑫----⑬⑭----⑮⑯----|
⑤⑦□□ |⑰⑱----⑲⑳----AB----------|
∧∧□□ |C-D-|

⑨⑪□□
∧∧⑰<
VV>⑲
⑬⑮A<

1012□□
2418□
68□20
1416B□

――C
□□□□
□□□□
□□□□

□□□D
□□□□
□□□□
□□□□

□①VV |①②----------③④----------|
□∧⑦⑤ |⑤⑥----⑦⑧----⑨⑩----⑪⑫----|
V□⑪⑨ |⑬⑭----------⑮⑯----------|
③□∧∧ |⑰-⑱-|

□□⑮□
□□∧□
⑰――<
□□>⑬

□216□
□□86
18□1210
4□□14

①③□□ |①②----③④----⑤⑥----⑦⑧----|
∧∧□□ |⑨⑩----⑪⑫----⑬⑭----------|
□□□□ |⑮⑯----------⑰⑱----------|
□□□□ |⑲-⑳-|

□□>⑰
⑤⑦VV
∧∧⑨⑪
⑮<⑬<

□□□□
□□□□
□□□□
――⑲

24□18
68□□
□□1012
16□1420

□①<□ |①②--③④--⑤⑥--⑦⑧----⑨⑩----|
□>③□ |⑪⑫----------⑬⑭----------|
□⑤<□ |⑮⑯----------⑰⑱----------|
□>⑦□ |⑲-⑳-|

⑨<⑬□
⑰<∧□
V□>⑪
⑮□□□

□□□□
□□□□
□□□□
――⑲

10214□
18□4□
□6□12
16□820

□③<① |①②----------③④--⑤⑥--⑦⑧--|
□>⑤∧ |⑨⑩----⑪⑫----⑬⑭----------|
□⑦<□ |⑮⑯----------⑰⑱----------|
□□□□ |⑲-⑳-|

⑪<□□
□□□□
□□>⑬
□>⑨□

□□⑮□
⑲―∧<
□□□□
⑰<□□

124162
20□6□
□8□14
18□10□

□□>① |①②--③④--⑤⑥--⑦⑧----⑨⑩----|
□□③< |⑪⑫----------⑬⑭----⑮⑯----|
□□>⑤ |⑰⑱----⑲⑳--AB--CD--EF----|
□□⑦< |G-H-|

⑬<□□
□□>⑨
⑪<□□
□□>⑮

14□□2
□□410
12□□6
□□816

⑲□□
A<□□
C□□
□⑰<□

――G
□□□□
□□□□
E<□□

□20□H
B□□□
□D□□
F18□□

□V□□ |①②----③④----⑤⑥----⑦⑧----|
□①③□ |⑨⑩----⑪⑫----⑬⑭----------|
□□∧□ |⑮⑯----------⑰⑱----------|
□□□□ |⑲-⑳-|

⑤□⑦□
∧□∧□
⑬□□
⑨>⑪

□⑰□□
□∧□□
□□V□
□□⑮□

□□□□
□□□□
□□□□
⑲――<

6188□
□24□
□14□□
20101612

□□③① |①②----③④----⑤⑥----⑦⑧----|
□□∧∧ |⑨⑩----⑪⑫----⑬⑭----⑮⑯----|
□□□□ |⑰⑱----⑲⑳----AB----------|
□□□□ |C-D-|

□□□□
□□⑦⑤
□□∧∧
□□□□

□□□□
□□□□
□□VV
□□⑪⑨

VV□□
⑲⑰VV
□□⑮⑬
□□□□

□□□□
□□□□
□A<□
C――<

□□42
201886
□B1614
D□1210

①□①□ |①②----------③④----------|
□□∧□ |⑤⑥----------⑦⑧----⑨⑩----|
□□③□ |⑪-----⑫⑬----------⑭⑮----|
□□∧□ |⑯⑰----------⑱⑲----------|

□□□⑦
□□⑨∧
□□∧V
□⑤□⑤

□□28
□□10□
□□4□
□□□6

□□□V
⑪□□⑭
⑭□V□
□□⑫□

□□⑯□
□□∧□
□□⑱⑱
□□□∧

□□17□
□□□15
□□□19
□□13□

□①□□ |①②----------③④----------|
□∧□□ |⑤⑥----------⑦⑧----⑨⑩----|
□③□□ |⑪-----⑫⑬----⑭⑮----⑯⑰----|
□∧□① |⑱⑲----⑳A----BC----------|

⑦□□□
∧⑨□□
V∧□□
⑤□□□

V□⑭□
⑯□∧□
⑫□□□
∧□⑪□

□□V□
□□BV
□V□⑱
□⑳□□

8215□
1710C□
134□19
6A□□

□□□① |①②----------③④--⑤⑥--⑦⑧--|
□VV∧ |⑨⑩----⑪⑫----⑬⑭----⑮⑯----|
□③⑤□ |------⑰⑱----------⑲⑳----|
□□□□ |AB----------CD----------|

⑪□□V
∧□□⑬
V□□V
⑦□□⑨

□⑰C□
V∧∧V
⑮□V⑲
□□A□

1218D2
□□□14
164620
8□B10

①□□□ |①②----------③④----------|
∧□□□ |⑤⑥----------⑦⑧----------|
□③□□ |⑨⑩----------------⑪⑫----|
□∧□① |⑬⑭----------⑮⑯----------|

□□□□
□⑦□⑦
V∧⑤□
⑤□□□

V⑮□□
⑨∧□□
⑪V□□
∧⑬⑨□

216□□
108□□
124□□
614□□

③□①① |①②----③④----⑤⑥--⑦⑧--⑨⑩--|
∧□∧□ |⑪⑫----⑬⑭----⑮⑯----------|
□□□□ |⑰⑱----⑲⑳----AB----CD----|
□□□□ |EF----------GH----------|

□□□□
□⑦⑤□
□∧∧⑤
□□□□

4□2□
□86□
□□□□
□□□□

□□□□
⑮<□□
⑮⑪⑨V
⑪∧∧⑬

GCE□
∧∧∧⑰
□VV∧
□⑲A□

HDF□
16□□18
□1210□
□20B14

□□□□ |①②----------③④----------|
□□V□ |⑤⑥----------⑦⑧----⑨⑩----|
□□③V |⑪⑫----⑬⑭----⑮⑯----⑰⑱----|
①□□① |⑲⑳----------AB----------|

□V>⑦
⑤⑤□□
□□□□
□□⑨<

□□□8
□6□□
□□4□
□□102

□⑪□□
□□⑬<
□□>⑪
□□□□

□□⑰<
□□>⑮
□⑰A<
□□>⑲

□□18□
□□1416
□□B12
□□□20

□□□⑤ |①②----------③④----⑤⑥----|
③□□ |⑦-----------⑧⑨----------|
⑤<□□ |⑩-----⑪⑫----⑬⑭----⑮⑯----|
①<□□ |⑰⑱----------⑲⑳----------|

⑧⑪<□
∧>⑬⑧
□⑮<⑦
□□□⑩

□□□⑲
□□□∧
□□□□
□>⑰□

912□20
□414□
616□□
2□18□

□⑦③□ |①②----------③④----------|
□∧∧□ |⑤⑥----------⑦⑧----------|
V□□V |⑨⑩----⑪⑫----⑬⑭----⑮⑯----|
①□□⑤ |⑰⑱----⑲⑳----AB----CD----|

VVVV
⑨⑰⑲⑪
⑬AC⑮
∧∧∧∧

□84□
10182012
14BD16
2□□6

③⑪⑬⑤ |①②----------③④----⑤⑥----|
∧∧∧∧ |⑦⑧----⑨⑩----⑪⑫----⑬⑭----|
VVV□ |⑮⑯----------⑰⑱----------|
①⑦⑨□ |⑲-⑳---------------AB----|

412146
□□□□
□□□□
2810□

V□□□
⑮□□□
□□□V
□□□⑰

□□□□
――⑲
□□□□
□□□□

□□□A
□□□∧
□□□□
□□□□

□□□B
16□□20
□□□□
□□□18

①<□□ |①②----③④----⑤⑥----⑦⑧----|
③□□ |⑨⑩----------⑪⑫----⑬⑭----|
⑤<□□ |⑮⑯----⑰⑱----⑲⑳----------|
⑦□□ |A-B---------------------|

□□□□
⑨<□□
□□⑬<
□□>⑪

□□⑰<
□□>⑮
□□>⑲
□□□□

――A
□□□□
□□□□
□□□□

2□18B
104□16
6□1420
□8□12

□□□□ |①②----③④----⑤⑥----⑦⑧----|
①③□□ |⑨⑩----------⑪⑫----------|
∧∧□□ |⑬⑭----------⑮⑯----------|
□□□□ |⑰⑱----------⑲⑳----------|

□□□□
□□□□
⑤⑦□□
∧∧□□

□⑲⑪⑮
□∧∧∧
□□VV
⑨<⑰⑬

□201216
24□□
68□□
10□1814

□□□□ |①②----------③④----⑤⑥----|
□□□V |⑦⑧----⑨⑩----⑪⑫----------|
□□□① |⑬⑭----------⑮⑯----------|
□□□□ |⑰⑱----------⑲⑳--AB--CD--|

□□③<
⑪<>⑤
□□⑦<
□□>⑨

□□4□
12□□6
□□82
□□□10

⑰□□⑬
∧□□∧
V□□□
⑮□□□

□□□□
A⑲<
□□C<
□□□□

18□□14
□B20□
□□D□
16□□□

□>③□ |①②----③④----⑤⑥----⑦⑧----|
□□□□ |⑨⑩----------⑪⑫----⑬⑭----|
①□□ |⑮⑯----⑰⑱----⑲⑳----------|
□□□□ |A-B---------CD----------|

□□□□
⑤□□V
∧□□⑦
□□□□

⑬□□□
∧□□□
□□□V
□⑨<⑪

14□4□
6□□□
□2□8
□10□12

□□>⑮
□□□□
⑰<V□
□□⑲□

□□□□
□□□□
□C□□
A∧―<

□□□16
□□□□
18D□□
B□20□

⑨VVV |①②--③④--⑤⑥--⑦⑧----⑨⑩----|
∧⑪①③ |⑪⑫----------⑬⑭----------|
□□⑤⑦ |⑮⑯----------⑰⑱----------|
□□∧∧ |⑲⑳----------A-B---------|

10□□□
□1224
□□68
□□□□

□>⑰⑬
□□□∧
□□□□
□□>⑮

A――<
□□□□
□□□□
⑲<□□

B□1814
□□□□
□□□□
20□□16

□□□□ |①②----------③④----⑤⑥----|
V⑤□□ |⑦⑧----⑨⑩----⑪⑫----------|
③∧□① |⑬⑭----------⑮⑯----------|
□□□∧ |⑰⑱----------------⑲⑳----|

□⑪<□
□□V⑨
□□⑦∧
□□□□

□12□□
□6□10
4□82
□□□□

□□□⑬
□⑲□∧
V∧□V
⑰□□⑮

□□□14
□20□□
□□□□
18□□16

③<□□ |①②----------③④----⑤⑥----|
⑤<V□ |⑦⑧----------⑨⑩----------|
□□①□ |⑪⑫----⑬⑭----⑮⑯----------|
□□□□ |⑰⑱----------------------|

□□V□
□□⑨□
⑦<□□
□□□□

□□>⑪
□□>⑬
□□>⑮
⑰――<

4□□12
6□1014
8□216
18□□□

□>②□ |①-----------②③----------|
②□□□ |④-----⑤⑥----------------|
④□□V |⑦⑧----------------⑨⑩----|
□⑤①⑤ |------------⑪⑫----------|

□⑦□□
□□⑦□
□□∧□
□□□□

□□□⑪
⑪□□∧
□⑨V□
□□⑨□

□□312
□□8□
□□□□
□□106

⑧□⑦□ |①②----③④----⑤⑥----------|
∧①<□ |⑦-----⑧⑨----------------|
□>③□ |⑩⑪----------------⑫⑬----|
□⑤<□ |------------⑭⑮----⑯⑰----|

9□□□
□2□□
□□4□
□6□□

□□□□
□⑫□⑩
V∧□□
⑩□□⑫

□□□□
⑭V□□
∧⑯□□
□□□□

□□□□
1513□□
□17□□
11□□□

□⑦②□ |①-----------②③----------|
□□∧V |④-----⑤⑥----⑦-----------|
□□□⑤ |⑧⑨----------------⑩⑪----|
□④①□ |------------⑫⑬----------|

□□3□
□□□□
□□□6
□□□□

□□⑫⑫
□□⑧∧
⑧□∧V
⑩□□⑩

□□□13
□□9□
□□□□
□□□11

□□□□ |①②----③④----⑤⑥----------|
□①<□ |⑦⑧----⑨⑩----⑪-----⑫⑬----|
□>③□ |⑭⑮----⑯⑰----⑱⑲----⑳-----|
□⑤<□ |AB----------CD----------|

⑦<□□
□□□□
⑨□□
□□⑪□

□□□□
⑭<>⑫
⑱<>⑯
□□□□

□A□⑳
□∧□□
V□□□
C□□□

8B□□
152□13
1910417
D6□□

④>②□ |①-----------②③----------|
□⑤□□ |④-----⑤⑥----------------|
□□②V |⑦⑧----⑨⑩----------⑪⑫----|
□①□⑤ |------------⑬-----------|

□⑨□□
□∧⑦□
□□∧□
□□□□

□□□□
⑬□□□
⑬⑪V□
□□⑪□

□103□
□□8□
□□□□
□□126

⑤□④① |①-----------②③----------|
∧□□V |④-----⑤⑥----------------|
□□①② |⑦⑧----------------⑨⑩----|
□□□□ |------⑪⑫----⑬⑭----------|

□□□□
□⑨□⑦
V∧□□
⑦□□⑨

□□□□
□□□□
□□⑬<
□□⑪<

6□□□
□10□□
□□143
8□12□

①⑧③□ |①②----------③④----------|
∧□∧V |⑤-----⑥⑦----⑧-----------|
□□□⑥ |⑨⑩----------------⑪⑫----|
□⑤□□ |------⑬⑭----⑮⑯----⑰⑱----|

2□4□
□□□□
□□□7
□□□□

□□□□
□□⑨□
⑨□∧V
⑪□□⑪

⑬□□⑮
∧□□∧
□V□□
□⑰□□

14□□16
□□10□
□□□□
□18□12

□③⑤□ |①②----③④----⑤⑥----------|
□∧∧□ |⑦-----⑧⑨----⑩-----------|
□□V□ |⑪⑫----------------⑬⑭----|
□□①□ |⑮---|

□46□
□□□□
□□□□
□□2□

□□□□
⑧⑬□V
∧∧⑦⑪
⑪□□⑩

□⑮□□
□□□⑮
□□□□
□□□□

□□□□
914□□
□□□12
□□□□

①□①□ |①②----------③④----------|
□□∧□ |⑤⑥----------⑦⑧----⑨⑩----|
□□③□ |⑪-----⑫⑬----------⑭⑮----|
□□∧□ |⑯⑰----------⑱⑲----------|

□□□⑦
□□⑨∧
□□∧V
□⑤□⑤

□□28
□□10□
□□4□
□□□6

□□□V
⑪□□⑭
⑭□V□
□□⑫□

□□⑯□
□□∧□
□□⑱⑱
□□□∧

□□17□
□□□15
□□□19
□□13□

□①□□ |①②----------③④----------|
□∧□□ |⑤⑥----------⑦⑧----⑨⑩----|
□③□□ |⑪-----⑫⑬----⑭⑮----⑯⑰----|
□∧□① |⑱⑲----⑳A----BC----------|

⑦□□□
∧⑨□□
V∧□□
⑤□□□

V□⑭□
⑯□∧□
⑫□□□
∧□⑪□

□□V□
□□BV
□V□⑱
□⑳□□

8215□
1710C□
134□19
6A□□

□□□① |①②----------③④----⑤⑥----|
□□□∧ |⑦⑧--⑨⑩--⑪⑫--⑬⑭----⑮⑯----|
□□□□ |⑰-----⑱⑲----------⑳A----|
□□□□ |BC----------DE----------|

③□□V
∧V□⑤
V⑪□V
⑦□□⑨

□⑱□□
⑰∧VV
⑮□⑬⑳
∧□□□

□□D□
□□∧□
□□V□
□□B□

419E2
□□□6
161214A
8□C10

①□□□ |①②----------③④----⑤⑥----|
∧□>③ |⑦⑧----------⑨⑩----------|
□>⑤□ |⑪⑫----⑬⑭----⑮⑯----⑰⑱----|
□□□① |⑲⑳----AB----CD----------|

□□□⑨
□□□∧
□□□□
⑦□□

2□□10
□□□4
□□6□
□8□□

VV□□
⑪⑬□□
⑮⑰□□
∧∧□□

⑲A□□
∧∧□□
V□□□
C□□□

20B□□
1214□□
1618□□
D□□□

□□>⑤ |①②----③④----------⑤⑥----|
□□>① |⑦⑧----------⑨⑩----⑪⑫----|
□>③□ |⑬-----⑭⑮----⑯⑰----⑱⑲----|
□□□□ |⑳A----BC----DE----FG----|

□□□□
□>⑦□
□□>⑨
□>⑪□

⑭<□□
⑳□□
⑱<□□
⑯□⑬

V□□□
B□□□
VD□□
F∧□□

15□□6
CA82
19E410
G1712□

□□V① |①②--③④--⑤⑥--⑦⑧----------|
□□③∧ |⑨⑩----⑪⑫----⑬⑭----⑮⑯----|
□□□□ |⑰-----⑱⑲----------⑳A----|
□□□□ |BC----------DE----------|

⑨⑪⑦V
∧∧∧⑤
□□VV
□□⑮⑬

□□□□
V□□V
⑳V⑰⑱
□B□□

□□□□
□D□□
□∧□□
□□□□

101282
□E46
A□□19
□C1614

□□□□ |①②----------③④----⑤⑥----|
□□□③ |⑦-----------⑧⑨----⑩⑪----|
V□⑤∧ |⑫-----⑬⑭----------⑮⑯----|
①□∧□ |⑰⑱----------⑲⑳----------|

⑫□⑦⑧
⑮□⑩∧
∧□∧V
□□□⑬

□⑲□□
□∧□□
□⑰□□
□∧□□

□20□9
16□114
□186□
2□□14

□□□□ |①②----③④----⑤-----⑥⑦----|
□□□□ |⑧⑨----------⑩⑪----⑫⑬----|
①V□□ |⑭-----⑮⑯----⑰⑱----⑲⑳----|
∧③□□ |AB----CD----EF----------|

⑥<⑧⑧
□⑧<□
□□□□
⑤□□□

□□□□
□□>⑩
□>⑫□
□□□□

□⑮<□
□>⑰□
□⑲<□
□□□⑭

□□□□
C<□□
□□>E
□>A□

716□□
D91811
22013F
□4B□

③□①□ |①②----------③④----------|
∧□□□ |⑤⑥----------⑦⑧----⑨⑩----|
V□③□ |⑪-----⑫⑬----------⑭⑮----|
①□□□ |⑯⑰----------⑱⑲----------|

□□□⑤
V□⑦∧
⑦V□□
□⑨□⑤

□⑫⑱□
□∧∧V
□⑪V⑭
□□⑯□

413196
□□□□
8□□15
21017□

□□□□ |①②----------③④----------|
①□□□ |⑤⑥----------⑦⑧----⑨⑩----|
∧□□V |⑪-----⑫⑬----⑭⑮----⑯⑰----|
①□□③ |⑱⑲----⑳A----BC----------|

⑦□□⑤
∧⑨□∧
⑤∧□□
□□□□

8□□6
210□□
□□□□
□□□4

□□VV
□□⑱⑫
□⑪⑭⑯
□□∧∧

□□B<
□□□□
□□□□
□□>⑳

□□C□
□□1913
□□1517
□□□A

③□□ |①②----③④----⑤⑥--⑦⑧--⑨⑩--|
□□□□ |⑪⑫----⑬⑭----⑮⑯----⑰⑱----|
□□□□ |⑲-----⑳A----------BC----|
①<□□ |DE----------FG----------|

VV□□
⑤⑦□□
⑨⑪□□
∧∧□□

⑬<□□
□□□□
□VV□
□⑰⑮□

□□□⑳
□□□∧
□□⑲B
□□□∧

□□□□
□□D<
□□□□
□□>F

144□A
68E□
1012□C
21816G

①③□□ |①②----③④----⑤⑥----⑦⑧----|
∧∧□□ |⑨⑩----------⑪⑫----------|
□□□□ |⑬⑭--⑮⑯--⑰⑱--⑲⑳--AB--CD--|
□□□□ |EF----------GH----------|

□□□□
⑤⑦□□
∧∧□□
□□□□

□□>⑪
□□□□
⑨□□□
∧□□□

24□12
68□□
10□□□
□□□□

□□VV
□□⑬⑮
□□□□
□□□□

□□□□
□□VV
□□⑰⑲
□□□□

E<□□
□□□□
□VVV
□GAC

F□□□
□□1416
□□1820
□HBD

□□①③ |①②----③④----⑤⑥--⑦⑧--⑨⑩--|
□□∧∧ |⑪⑫--⑬⑭--⑮⑯--⑰⑱----------|
□□□□ |⑲⑳----AB----CD----EF----|
□□□□ |GH----------IJ----------|

VVVV
⑤⑦⑨⑪
⑬⑮⑰□
∧∧∧□

□□24
681012
141618□
□□□□

⑲GE□
∧∧∧□
□VVV
□CIA

20HF□
□□□□
□□□□
□DJB

VVVV |①②--③④--⑤⑥--⑦⑧--⑨⑩--⑪⑫--|
⑦⑤③① |⑬⑭----------⑮⑯----⑰⑱----|
□⑬⑪⑨ |⑲⑳----AB----CD----EF----|
□∧∧∧ |GH----IJ----KL----MN----|

□□□□
8642
□141210
□□□□

A□C⑮
∧□∧∧
VV□V
⑰E□⑲

□I□□
□∧□K
M□V∧
∧□G□

BJD16
□□□L
N□□□
18FH20

□□□□ |①-----------②③----④⑤----|
②<□□ |⑥-----------⑦⑧----⑨⑩----|
□④<① |⑪-----⑫⑬----------⑭⑮----|
□□□□ |⑯⑰----------⑱-----------|

□□>⑦
□>⑨□
□□□□
⑥□□□

□□□8
3□10□
□5□□
□□□□

⑭<□□
□⑯<□
□⑱□V
□□⑪⑫

15□□□
□17□□
□□□□
□□□13

□①③□ |①②----------③④----------|
□∧∧□ |⑤⑥----------⑦⑧----------|
□VV□ |⑨⑩-⑪--⑫--⑬--⑭--⑮--⑯--⑰--|
□⑦⑤□ |⑱-⑲-|

□□□□
⑨⑪⑫□
∧⑭⑬□
□□□□

⑯□□⑰
――⑱
⑮□□□
□□□□

□24□
10□□19
□□□□
□86□
最終更新:2022年04月07日 12:35