アットウィキロゴ
狂水一華
BEMANI Sound Team "HuΣeR Vs. SYUNN" feat.いちか

BASIC

Level: 3
BPM: 160
Notes: 196

1
口口口口 |----|
口口口口 |----|
口口口口 |----|
口口口口 |----|
2
口口口口 |----|
口口口口 |----|
口口口口 |----|
口口口口 |----|
3
口口口口 |①---|
口①口口 |----|
口口口口 |----|
口口口口 |----|
4
口口口口 |①---|
口口口口 |----|
口①口口 |----|
口口口口 |----|
5
口口口口 |①---|
口口口口 |----|
口口①口 |----|
口口口口 |----|
6
口口口口 |①---|
口口①口 |----|
口口口口 |----|
口口口口 |----|
7
口口口口 |①---|
①口口口 |----|
口口口口 |----|
口口口口 |----|
8
口口口口 |①---|
口口口口 |----|
①口口口 |----|
口口口口 |----|
9
口口口口 |①---|
口口口口 |----|
口口口① |----|
口口口口 |----|
10
口口口口 |①---|
口口口① |----|
口口口口 |----|
口口口口 |----|
11
口①②口 |①---|
口口口口 |----|
口口口口 |②---|
口口口口 |----|
12
①口口② |-①--|
口口口口 |----|
口口口口 |②---|
口口口口 |----|
13
口口口口 |①---|
口①②口 |----|
口口口口 |②---|
口口口口 |----|
14
口口口口 |①---|
①口口② |----|
口口口口 |②---|
口口口口 |----|
15
口口口口 |①---|
口口口口 |----|
口①②口 |②---|
口口口口 |----|
16
口口口口 |①---|
口口口口 |----|
①口口② |②---|
口口口口 |----|
17
口口口口 |①---|
口口口口 |----|
口口口口 |②---|
口①②口 |----|
18
口口口口 |①---|
口口口口 |----|
口口口口 |②---|
①口口② |----|
19
口口口口 |①---|
口②口口 |----|
口①口口 |②---|
口口口口 |----|
20
口口口口 |①---|
口口①口 |----|
口口②口 |②---|
口口口口 |----|
21
口口口口 |①---|
①口口口 |----|
口口口口 |----|
口口口口 |----|
22
口口口口 |①---|
口口口口 |----|
口①口口 |----|
口口口口 |----|
23
口口口口 |①---|
口口①口 |----|
口口口口 |----|
口口口口 |----|
24
口口口口 |①---|
口口口口 |----|
口口口① |----|
口口口口 |----|
25
口口口口 |①---|
口口口① |----|
口口口口 |----|
口口口口 |----|
26
口口口口 |①---|
口口口口 |----|
口口①口 |----|
口口口口 |----|
27
口①口口 |①---|
口②口口 |----|
口口口口 |②---|
口口口口 |----|
28
口口口口 |①---|
口口口口 |----|
口①口口 |②---|
口②口口 |----|
29
口口口口 |①---|
口口口口 |----|
口口②口 |②---|
口口①口 |----|
30
口口②口 |①---|
口口①口 |----|
口口口口 |②---|
口口口口 |----|
31
①口口① |①---|
口②口口 |----|
口口口口 |②---|
口口口口 |----|
32
口口口口 |①---|
口口口口 |----|
口①口口 |②---|
口②口口 |----|
33
口口口口 |①---|
口口口口 |----|
口口②口 |②---|
口口①口 |----|
34
②口口② |①---|
口口①口 |----|
口口口口 |②---|
口口口口 |----|
35
口①①口 |①---|
口口口口 |----|
口口口口 |----|
口口口口 |----|
36
口口口口 |①---|
口①①口 |----|
口口口口 |----|
口口口口 |----|
37
口口口口 |①---|
口口口口 |----|
口①①口 |----|
口口口口 |----|
38
口口口口 |①---|
口口口口 |----|
口口口口 |----|
口①①口 |----|
39
口口口口 |①---|
口口口口 |----|
口口口口 |----|
①口口① |----|
40
口口口口 |①---|
口口口口 |----|
①口口① |----|
口口口口 |----|
41
口口口口 |①---|
①口口① |----|
口口口口 |----|
口口口口 |----|
42
①口口① |①---|
口口口口 |----|
口口口口 |----|
口口口口 |----|
43
口口口口 |①---|
口①②③ |②---|
口口口口 |③---|
口口口口 |----|
44
口口口口 |①---|
口口口口 |②---|
③②①口 |③---|
口口口口 |----|
45
口口口口 |①---|
口①②口 |②---|
口③④口 |③---|
口口口口 |④---|
46
口口口口 |①---|
③口口③ |②---|
口口口口 |③---|
口①②口 |----|
47
口口口① |①---|
口口②口 |②---|
口③口口 |③---|
④口口口 |④---|
48
④口口口 |①---|
口③口口 |②---|
口口②口 |③---|
口口口① |④---|
49
口口口① |①---|
口口②口 |②---|
口③口口 |③---|
④口口口 |④---|
50
④口口口 |①---|
口③口口 |②---|
口口②口 |③---|
口口口① |④---|
51
口口口口 |①---|
②口口② |----|
口①①口 |②---|
口口口口 |----|
52
口口口口 |①---|
口①①口 |----|
②口口② |②---|
口口口口 |----|
53
口口口口 |①---|
②口口② |----|
口①①口 |②---|
口口口口 |----|
54
①②③④ |①---|
口口口口 |②---|
口口口口 |③---|
口口口口 |④---|
55
口口口口 |①---|
②口口② |----|
口①①口 |②---|
口口口口 |----|
56
口口口口 |①---|
口①①口 |----|
②口口② |②---|
口口口口 |----|
57
口口口口 |①---|
②口口② |----|
口①①口 |②---|
口口口口 |----|
58
④③②① |①---|
口口口口 |②---|
口口口口 |③---|
口口口口 |④---|
59
口口口口 |①---|
口口口口 |----|
口①①口 |----|
口口口口 |----|
60
口口口口 |①---|
口①①口 |----|
口口口口 |----|
口口口口 |----|
61
口口口口 |①---|
口④③口 |②---|
口①②口 |③---|
口口口口 |④---|
62
口口口口 |①---|
口④③口 |②---|
口①②口 |③---|
口口口口 |④---|
63
①口口② |①---|
③口口④ |②---|
口口口口 |③---|
口口口口 |④---|
64
口口口口 |①---|
口口口口 |②---|
①口口② |③---|
③口口④ |④---|
65
口口口口 |①---|
口口口口 |②---|
口③④口 |③---|
口①②口 |④---|
66
口③④口 |①---|
口①②口 |②---|
口口口口 |③---|
口口口口 |④---|
67
①口口口 |①---|
②口口口 |----|
口口口口 |②---|
口口口口 |----|
68
口口口口 |①---|
口口口口 |----|
①口口口 |②---|
②口口口 |----|
69
口口口口 |①---|
口口口口 |----|
口口口② |②---|
口口口① |----|
70
口口口② |①---|
口口口① |----|
口口口口 |②---|
口口口口 |----|
71
口口口口 |①---|
②①①口 |----|
口口口口 |②---|
口口口口 |----|
72
口口口口 |①---|
口口口口 |----|
①口口口 |②---|
②口口口 |----|
73
口口口口 |①---|
口口口口 |----|
口口口② |②---|
口口口① |----|
74
口②②口 |①---|
口口口① |----|
口口口口 |②---|
口口口口 |----|
75
口口口口 |①---|
口④③口 |②---|
口①②口 |③---|
口口口口 |④---|
76
口口口口 |①---|
口④③口 |②---|
口①②口 |③---|
口口口口 |④---|
77
口口口口 |①---|
口④③口 |②---|
口①②口 |③---|
口口口口 |④---|
78
口口口口 |①---|
口④③口 |②---|
口①②口 |③---|
口口口口 |④---|
79
①①①① |①---|
口口口口 |----|
口口口口 |----|
口口口口 |----|

accuracy: 100%
最終更新:2022年04月07日 13:36