アットウィキロゴ
狂水一華
BEMANI Sound Team "HuΣeR Vs. SYUNN" feat.いちか

ADVANCED

Level: 8
BPM: 160
Notes: 658

1
口口口口 |----|
口口口口 |----|
口口口口 |----|
口口口口 |----|
2
口口口口 |----|
口口口① |----|
口口②口 |①---|
口口口口 |②---|
3
口②口口 |①---|
口③⑥口 |--②-|
口④⑤口 |③-④-|
口①口口 |⑤-⑥-|
4
口口①口 |①---|
口④⑤口 |--②-|
口③⑥口 |③-④-|
口②口口 |⑤-⑥-|
5
⑥口口口 |①---|
④口口⑤ |--②-|
②口口③ |③-④-|
口口①口 |⑤-⑥-|
6
⑥口①⑥ |①-②-|
口②口口 |③-④-|
口口③口 |⑤---|
口④⑤口 |⑥---|
7
口口口④ |①---|
①口口口 |②---|
口②口⑤ |③---|
口口③口 |④-⑤-|
8
口⑤口口 |①-②-|
口③④口 |③-④-|
口①②口 |⑤---|
口口口口 |----|
9
口口口口 |①---|
②③④口 |②-③-|
口⑤口口 |④---|
口①口口 |⑤---|
10
口口口口 |①---|
口口口口 |----|
口口口口 |----|
口口①口 |----|
11
⑤口口⑤ |①-②-|
⑥口口⑥ |③-④-|
⑦①③⑦ |⑤--⑥|
口④②口 |--⑦-|
12
⑨①③⑦ |①-②-|
⑧④②⑥ |③-④-|
口口口口 |⑤-⑥⑦|
口⑤口口 |-⑧⑨-|
13
口⑧⑧⑦ |①-②-|
口⑤口⑥ |③-④-|
口①③口 |⑤-⑥⑦|
口④②口 |--⑧-|
14
⑥口口⑤ |①-②-|
口口口口 |③-④-|
口①③口 |⑤-⑥-|
⑧④②⑦ |⑦-⑧-|
15
⑦①③⑦ |①-②-|
⑥④②⑥ |③-④-|
⑤口口⑤ |⑤--⑥|
口口口口 |--⑦-|
16
⑨口口⑦ |①-②-|
⑧⑤口⑥ |③-④-|
口①③口 |⑤-⑥⑦|
口④②口 |-⑧⑨-|
17
⑦①③口 |①-②-|
⑥④②口 |③-④-|
口口⑤口 |⑤-⑥⑦|
口⑧⑧口 |--⑧-|
18
口口口口 |①-②-|
⑧⑥④② |③-④-|
⑦⑤③① |⑤-⑥-|
口口口口 |⑦-⑧-|
19
⑤①⑤① |①-②-|
口口口口 |③-④-|
⑥口②口 |⑤-⑥-|
⑧③④⑦ |⑦-⑧-|
20
口①口① |①-②-|
口口口口 |③-④-|
口口②口
口③④口

⑥口口⑥
口⑤⑤口
口口口口 |⑤---|
口口口口 |⑥---|
21
口口口口 |①-②-|
口口⑦口 |③-④-|
①③④② |⑤-⑥-|
口⑤⑥口 |--⑦-|
22
①②③④ |①--②|
口口口口 |--③-|
①②③④ |-④--|
口口口口 |----|
23
口⑤①口 |----|
⑤口口① |①-②③|
④③②口 |④---|
口⑥⑦口 |⑤-⑥⑦|
24
口⑥②口 |①---|
⑥口口② |②-③④|
⑤④③口 |⑤---|
口⑦⑧① |⑥-⑦⑧|
25
口⑥②口 |①---|
⑥口口② |②-③④|
⑤④③口 |⑤---|
口口口① |⑥---|
26
口口口口 |①--②|
④③②① |--③-|
口口⑤口 |-④--|
④③②① |⑤---|
27
③③口① |①---|
口口口口 |--②-|
口②④口 |③---|
口口口口 |--④-|
28
口口①① |①---|
口口口口 |--②-|
③②口口 |③-④-|
④⑤⑥口 |⑤-⑥-|
29
口口①① |①---|
口口口口 |--②-|
口口②③ |③-④-|
口⑥⑤④ |⑤-⑥-|
30
③①②④ |①---|
①③④② |②---|
口口口口 |③---|
口口口口 |④---|
31
③③口口 |①---|
口口口口 |--②-|
口②④口 |③---|
口①①口 |--④-|
32
口口①① |①---|
口口口口 |--②-|
③②口口 |③-④-|
④⑤⑥口 |⑤-⑥-|
33
口口①① |①---|
口口口口 |--②-|
口口②③ |③-④-|
口⑥⑤④ |-⑤⑥-|
34
③①②④ |①---|
①③④② |②---|
口口口口 |③---|
口口口口 |④---|
35
口口口④ |①---|
口口口① |②-③-|
口③②④ |④---|
口⑤⑥① |⑤-⑥-|
36
口②口口 |①---|
①口③口 |②-③-|
口④⑦口 |④-⑤-|
①⑥⑤口 |⑥-⑦-|
37
口②口口 |①---|
①①③口 |②-③-|
口④⑦口 |④-⑤-|
口⑥⑤口 |⑥-⑦-|
38
口③口③ |①---|
①①口口 |②---|
口②口② |③---|
口④④口 |④---|
39
③③口口 |①---|
①口⑤② |②---|
①口口② |③---|
口口④④ |④-⑤-|
40
口⑤⑤③ |①-②-|
口②口③ |③-④-|
①口④口 |⑤---|
①口口口 |----|
41
口口③② |①---|
口口③② |②-③-|
口口口口
口①①口

口④口口
口④口口
口口口口 |④---|
口⑤⑤口 |⑤---|
42
⑥口口⑥ |①-②-|
口口口口 |③-④-|
③口口④ |⑤---|
①⑤⑤② |⑥---|
43
口口口口 |①--②|
口口口① |③-④-|
口口②③
口④口①

⑤口⑤⑥
口⑤口⑦
口口口口 |⑤---|
口口口口 |⑥-⑦-|
44
口⑤口⑤ |①--②|
①⑥⑤⑥ |③-④-|
③②⑦口 |⑤---|
①口④口 |⑥-⑦-|
45
④⑦⑧⑦ |①--②|
口口口口 |③-④-|
③②⑥口 |⑤-⑥-|
⑤①⑤① |⑦-⑧-|
46
⑥口口⑥ |①-②-|
②①③④ |③-④-|
①②④③ |⑤---|
口⑤⑤口 |⑥---|
47
④①口口 |①---|
①⑤②口 |②---|
④②口③ |③---|
口口③口 |④-⑤-|
48
口口口口 |①-②-|
③口口① |③-④-|
口④②口
③口口①

口⑤口⑤
口口口口
口口口口 |⑤---|
口⑥口⑥ |⑥---|
49
口口口口 |①---|
②①①口 |②-③-|
口③口口 |④---|
⑤口④⑤ |⑤---|
50
⑦①①⑦ |①--②|
⑥③⑤⑥ |③-④⑤|
①②④① |--⑥-|
口口口口 |⑦---|
51
口②①口 |--①-|
⑥口③口 |②---|
口④⑤口 |③-④⑤|
口①②口 |--⑥-|
52
口①②口 |--①-|
口③口⑥ |②---|
口⑤④口 |③-④⑤|
口②①口 |--⑥-|
53
②③③① |--①-|
口口④口 |②---|
口⑤⑤口 |③-④-|
①⑥口② |⑤-⑥-|
54
①③④② |①---|
口口口口 |②---|
口口口口 |③---|
②④③① |④---|
55
②口口① |--①-|
⑥口③口 |②---|
口④⑤口 |③-④⑤|
①口口② |--⑥-|
56
①口口② |--①-|
口⑦⑥口 |②-③④|
口③④⑤ |⑤-⑥⑦|
②⑧口① |--⑧-|
57
②③③① |--①-|
口④口口 |②---|
口⑤⑤口 |③-④-|
①口⑥② |⑤-⑥-|
58
②④③① |①---|
口口口口 |②---|
口口口口 |③---|
①③④② |④---|
59
⑤口⑤① |①-②-|
口口口口 |③-④-|
⑥⑦③② |⑤-⑥-|
口④⑧口 |⑦-⑧-|
60
口①口① |①-②-|
口口口口 |③-④-|
口口③②
口④口口

⑥口口⑥
口⑤⑤口
口口口口 |⑤---|
口口口口 |⑥---|
61
口口口口 |①-②-|
口口⑦口 |③-④-|
①③④② |⑤-⑥-|
口⑤⑥口 |--⑦-|
62
①②③④ |①--②|
口口口口 |--③-|
①②③④ |-④--|
口口口口 |----|
63
口⑤①口 |----|
⑤口口① |①-②③|
④③②口 |④---|
口⑥⑦口 |⑤-⑥⑦|
64
口⑥②口 |①---|
⑥口口② |②-③④|
⑤④③口 |⑤---|
口⑦⑧① |⑥-⑦⑧|
65
口⑥②口 |①---|
⑥口口② |②-③④|
⑤④③口 |⑤---|
口口口① |⑥---|
66
⑪口口⑪ |①②③④|
⑧②①⑤ |--⑤⑥|
口④③⑨ |⑦⑧⑨⑩|
⑩⑥口⑦ |⑪---|
67
④④①口 |①---|
口口口口 |②-③-|
口③⑥口 |④---|
口⑤②口 |⑤-⑥-|
68
口口①① |①---|
口口口② |②-③-|
④③口口 |④-⑤-|
⑤⑥⑦口 |⑥-⑦-|
69
口口①① |①---|
②⑥⑥口 |②-③-|
口口③④ |④-⑤-|
口⑦⑦⑤ |⑥-⑦-|
70
⑤①③⑦ |①-②-|
①⑤⑦③ |③-④-|
⑧④②⑥ |⑤-⑥-|
口口口口 |⑦-⑧-|
71
④④口口 |①---|
⑤口口② |②-③-|
口③⑥口 |④---|
口①①口 |⑤-⑥-|
72
口口①① |①---|
口口口② |②-③-|
④③口口 |④-⑤-|
⑤⑥⑦口 |⑥-⑦-|
73
口口①① |①---|
②口口口 |②-③-|
口口③④ |④-⑤-|
口⑦⑥⑤ |⑥-⑦-|
74
口①③口 |①-②-|
①口口③ |③-④-|
口④②口
口口口口

⑤口口⑤
⑦口口口
⑥口口口 |⑤---|
口口口口 |⑥-⑦-|
75
⑩⑨④⑤ |①-②-|
口⑦②口 |③-④⑤|
⑥③⑧① |⑥-⑦-|
口⑦②口 |⑧-⑨⑩|
76
⑩⑨④⑤ |①-②-|
口⑦②口 |③-④⑤|
⑥③⑧① |⑥-⑦-|
口⑦②口 |⑧-⑨⑩|
77
⑩⑨④⑤ |①-②-|
口⑦②口 |③-④⑤|
⑥③⑧① |⑥-⑦-|
口⑦②口 |⑧-⑨⑩|
78
口口口④ |①②③④|
③⑦口⑧ |⑤⑥⑦⑧|
⑤①口②
口口⑥口

口口口口
⑮口⑭口
口⑬⑩⑯ |⑨⑩⑪⑫|
⑪⑨口⑫ |⑬⑭⑮⑯|
79
①①①① |①---|
口口口口 |----|
口口口口 |----|
口口口口 |----|

accuracy: 100%
最終更新:2022年04月07日 13:36