アットウィキロゴ
狂水一華
BEMANI Sound Team "HuΣeR Vs. SYUNN" feat.いちか

EXTREME

Level: 10.2
BPM: 160
Notes: 883

1
口口口口 |----|
口口口口 |----|
口口口口 |----|
口口口口 |----|
2
口口口口 |----|
口②口口 |----|
口口①口 |①---|
口口口口 |②---|
3
口口口口 |①---|
口口口② |--②-|
口口口口
口①①口

口口③口
口④口口
口⑤口口 |③-④-|
口口⑥口 |⑤-⑥-|
4
①③③① |①---|
②口④口 |--②-|
口口⑤口 |③-④-|
口⑥口口 |⑤-⑥-|
5
①口口① |①---|
口③口⑤ |--②-|
②口口口 |③-④-|
⑥④④⑥ |⑤-⑥-|
6
口口口⑥ |①-②-|
①口③口 |③-④-|
口②口④ |⑤---|
口口⑤⑥ |⑥---|
7
口①口口 |①---|
①口②口 |②---|
口②口口
口口口口

口⑤口口
口口口口
④口④③ |③---|
口口③口 |④-⑤-|
8
口口②口 |①-②-|
③口③① |③-④-|
口④口口 |⑤---|
口⑤⑤口 |----|
9
口④④口 |①---|
口③口口 |②-③-|
口②口⑤ |④---|
①口口① |⑤---|
10
⑦⑧⑨⑩ |①-②-|
口⑤⑥口 |③-④-|
口③④口 |⑤-⑥-|
口①②口 |⑦⑧⑨⑩|
11
口口口口 |①②③-|
①⑤口口 |④-⑤⑥|
②⑥④口
③口口口

口⑧⑨口
口口口口
⑩口口⑪ |⑦-⑧⑨|
口⑦口口 |--⑩⑪|
12
③⑧⑨口 |①②③-|
①⑤口② |④-⑤⑥|
⑩⑥④⑪ |⑦-⑧⑨|
口⑦口口 |--⑩⑪|
13
③口口口 |①②③-|
①⑤口② |④-⑤⑥|
口⑥④口
口口口口

⑩⑧⑨口
口口口口
口口口口 |⑦-⑧⑨|
口⑦口口 |--⑩-|
14
口⑧口⑤ |①②③④|
口④口① |⑤⑥⑦⑧|
口口③⑦
②⑥口口

⑭口⑨口
⑫口口⑬
⑭⑩口口 |⑨⑩⑪⑫|
口口⑪⑬ |⑬-⑭-|
15
口④口⑤ |①②③④|
口②③口 |⑤-⑥⑦|
口⑥①⑦
口口口口

口口口口
口口口口
⑫口⑬口 |⑧⑨⑩⑪|
⑩⑧⑪⑨ |⑫⑬--|
16
口④口⑤ |①②③④|
①②③口 |⑤-⑥⑦|
⑫⑥⑬⑦ |⑧⑨⑩⑪|
⑩⑧⑪⑨ |⑫⑬--|
17
口④口⑤ |①②③④|
①②③口 |⑤-⑥⑦|
口口口口
口⑥口⑦

⑭⑮口口
⑫⑬口口
⑩⑪口口 |⑧⑨⑩⑪|
⑧口⑨口 |⑫⑬⑭⑮|
18
口口①② |①②③④|
口口口③ |⑤⑥⑦⑧|
口口口④
⑧⑦⑥⑤

口口⑫口
⑩⑪口口
⑨口口口 |⑨⑩⑪-|
口口口口 |⑫---|
19
⑤①⑤① |①-②-|
口⑦⑧口 |③-④-|
⑥口口② |⑤-⑥-|
口④③口 |⑦-⑧-|
20
口①口① |①-②-|
口口口口 |③-④-|
口口口②
口④③口

⑤口口⑦
口口口口
⑤⑥口口 |⑤-⑥-|
口口口⑦ |⑦---|
21
⑤①口口 |①-②③|
口口口② |④-⑤-|
口口③口
口④口口

口⑩⑨⑨
口⑧口口
⑦口口口 |⑥-⑦⑧|
⑥口⑥口 |⑨-⑩-|
22
⑩口⑨口 |①--②|
②⑧①口 |--③④|
⑩②⑦① |⑤⑥⑦⑧|
④⑥⑤③ |⑨-⑩-|
23
口口口① |①---|
口口③口 |②-③④|
口④口①
②口口②

⑥口口⑥
口⑧口口
⑦口⑨口 |⑤---|
口口⑤口 |⑥⑦⑧⑨|
24
⑦口口⑦ |①---|
③⑧⑤① |②③④⑤|
口④⑧⑥ |⑥---|
②口口② |⑦-⑧-|
25
⑥①①⑥ |①---|
③口口⑤ |②-③-|
③④口⑤ |④-⑤-|
②①①② |⑥---|
26
口口②口 |①--②|
口口口④ |--③④|
口口口口
口③①口

⑤口口口
⑨口⑧口
口⑦⑥口 |⑤⑥⑦⑧|
口口⑩⑩ |⑨-⑩-|
27
口④①① |①---|
口口口④ |②-③-|
口③口② |④---|
口⑥口⑤ |⑤-⑥-|
28
①口①口 |①---|
口①口口 |②-③-|
口③②口
口口口口

⑥口口口
④口口④
口口口口 |④-⑤-|
⑤⑦口⑥ |⑥-⑦-|
29
口①口① |①---|
④口①④ |②-③-|
⑥⑦⑤⑥ |④-⑤-|
③口②口 |⑥-⑦-|
30
①②③④ |①②③④|
⑨⑩⑪⑫ |⑤⑥⑦⑧|
⑬⑭⑮⑯ |⑨⑩⑪⑫|
⑤⑥⑦⑧ |⑬⑭⑮⑯|
31
④①①② |①---|
口③口⑤ |②-③-|
口口口口 |④--⑤|
⑥口⑥④ |--⑥-|
32
⑤①③① |①-②-|
口⑥①⑤ |③-④-|
④②口口 |⑤-⑥-|
⑧⑦口⑧ |⑦-⑧-|
33
口①口① |①-②-|
口口口③ |③-④-|
口④④口
口口②口

口⑦口⑦
⑤口⑤口
⑥口口⑥ |⑤-⑥-|
口⑧⑧口 |⑦-⑧-|
34
①口①口 |①--②|
⑥⑦⑧⑨ |③--④|
⑤③③⑤ |⑤---⑥⑦⑧⑨|
②口口④ |----|
35
口④口① |①---|
口口口口 |②-③-|
④口①口 |④---|
⑤③②⑥ |⑤-⑥-|
36
口口①口 |①---|
口口口口 |--②-|
口②口①
口口口口

③③⑥⑥
口口④口
口口口⑤ |③-④-|
口口口口 |⑤-⑥-|
37
口口⑥口 |①---|
②③口⑤ |--②-|
口口④口 |③-④-|
口口①① |⑤-⑥-|
38
口④口④ |①---|
口口②口 |②-③-|
口⑤③⑤ |④---|
口①①口 |⑤---|
39
口口①口 |①---|
口②口① |②---|
口口②口
口口口口

⑤口⑤口
口口口口
③口口口 |③---|
④③④口 |④-⑤-|
40
口①口口 |①-②-|
①②③口 |③-④-|
口③④⑤ |⑤---|
口口⑤口 |----|
41
口④口④ |①---|
①口口口 |②-③-|
①②口口 |④---|
口⑤③⑤ |⑤---|
42
口口口⑨ |①②③④|
①③⑤⑦ |⑤⑥⑦⑧|
②④⑥⑧ |----|
口口口⑨ |⑨---|
43
④口①口 |①--②|
③②①口 |③-④-|
口口口口
口口口口

口口口⑤
口口⑧⑤
⑤口⑦口 |⑤-⑥⑦|
口⑤⑥⑨ |⑧-⑨-|
44
③②⑤口 |①--②|
⑥⑦⑧④ |③-④-|
⑤①口⑤ |⑤-⑥⑦|
①⑤口⑨ |⑧-⑨-|
45
③②口① |①--②|
口口口④ |③-④-|
口①口④
①口口口

口口口⑦
口⑥⑥口
⑤口口口 |⑤-⑥-|
口⑤口⑧ |⑦-⑧-|
46
⑤③①⑩ |①-②-|
⑥⑦⑧⑨ |③-④-|
⑤③①口 |⑤---⑥⑦⑧⑨|
口④②⑩ |⑩---|
47
⑦②⑧⑨ |①-②③|
口口口⑧ |④-⑤-|
⑤③⑥① |⑥⑦--|
①④①⑥ |⑧--⑨----|
48
口④口口 |①-②③|
④③②口 |④-⑤⑥|
⑤⑥口①
口口①口

⑧口口⑧
口口口口
口口⑦口 |⑦---|
口⑩⑨⑦ |⑧-⑨⑩|
49
⑦⑨⑧⑩ |①-②③|
①③②④ |④-⑤⑥|
⑦⑥⑤⑩ |⑦-⑧⑨|
①⑫⑪④ |⑩---⑪⑫--|
50
④口④⑩ |①--②|
⑥⑦⑧⑨ |③-④-|
⑤③②⑩ |⑤---⑥⑦⑧⑨|
①口口① |⑩---|
51
②①口口 |--①-|
口③口口 |②-③④|
口口④口
②①口口

口⑧口口
口口⑦⑥
⑧⑤口口 |⑤-⑥⑦|
口口口口 |--⑧-|
52
口口①② |--①-|
口③口口 |②-③④|
口口④口
口口①②

口口⑧口
口口⑦⑥
口⑤口⑧ |⑤-⑥⑦|
口口口口 |--⑧-|
53
②①⑥④ |--①-|
口③⑥④ |②-③-|
口口口口 |④-⑤-|
②①⑦⑤ |⑥-⑦-|
54
口⑤口⑥ |①②③④|
③口口口 |⑤⑥⑦⑧|
口⑦②④
口①口⑧

⑨口口口
口口⑩⑫
口口口口 |⑨⑩⑪⑫|
⑪⑬口口 |⑬---|
55
口③①② |--①-|
口口口口 |②-③④|
口④口口
口口①②

⑤口⑩口
⑦⑧口口
⑥口⑨⑩ |⑤⑥⑦⑧|
口口口口 |⑨-⑩-|
56
②①口口 |--①-|
口口口口 |②-③④|
口口口口
②①③④

口⑩口口
口⑨⑤⑥
⑩口⑦⑧ |⑤⑥⑦⑧|
口口口口 |⑨-⑩-|
57
⑤⑦①② |--①-|
⑤⑦口口 |②-③④|
口④③口 |⑤-⑥-|
⑥⑧①② |⑦-⑧-|
58
⑥口口⑦ |①②③④|
口口口③ |⑤⑥⑦⑧|
②④⑤①
⑧口口口

口⑭⑪口
口⑩⑮口
口口口⑬ |⑨⑩⑪⑫|
口⑫口⑨ |⑬⑭⑮-|
59
②口⑥⑦ |①-②-|
①⑤⑩① |③④⑤-|
④①①⑨ |⑥-⑦-|
③口口⑧ |⑧⑨⑩-|
60
⑥①⑥⑧ |①-②-|
②⑤口口 |③④⑤-|
④⑦口口 |⑥-⑦-|
③口口⑧ |⑧---|
61
⑤①口口 |①-②③|
口口口② |④-⑤-|
口口③口
口④口口

口口⑨⑨
口⑧口⑩
⑦口口口 |⑥-⑦⑧|
⑥口⑥口 |⑨-⑩-|
62
⑩口⑨口 |①--②|
②⑧①口 |--③④|
⑩②⑦① |⑤⑥⑦⑧|
④⑥⑤③ |⑨-⑩-|
63
口口口① |①---|
口口③口 |②-③④|
口④口①
②口口②

⑥口口⑥
口⑧口口
⑦口⑨口 |⑤---|
口口⑤口 |⑥⑦⑧⑨|
64
⑦口口⑦ |①---|
③⑧⑤① |②③④⑤|
口④⑧⑥ |⑥---|
②口口② |⑦-⑧-|
65
⑥①①⑥ |①---|
③口口⑤ |②-③-|
③④口⑤ |④-⑤-|
②①①② |⑥---|
66
口③④⑫ |①②③④|
⑥⑧⑩口 |⑤-⑥⑦|
⑦⑨⑪口 |⑧⑨⑩⑪|
⑤①②⑫ |⑫---|
67
①口①口 |①-②-|
口口口口 |③-④-|
④④口③
口②口口

口⑤口口
口口口⑤
口口口口 |⑤-⑥-|
口⑧⑥⑦ |⑦-⑧-|
68
①口①口 |①-②-|
口①口口 |③-④-|
口③②口
口口④口

⑦口口口
⑤口口⑤
口口口口 |⑤-⑥-|
⑥⑧口⑦ |⑦-⑧-|
69
口①口① |①-②-|
口口①口 |③-④-|
口②口口
④口③口

口口口口
⑤口口⑤
⑦⑧⑥⑦ |⑤-⑥-|
口口口口 |⑦-⑧-|
70
①②③④ |①②③④|
⑨⑩⑪⑫ |⑤⑥⑦⑧|
⑬⑭⑮⑯ |⑨⑩⑪⑫|
⑤⑥⑦⑧ |⑬⑭⑮⑯|
71
④①①② |①---|
口③口口 |②-③-|
口口⑥口 |④-⑤-|
⑦⑤⑦④ |⑥-⑦-|
72
⑤①③① |①-②-|
⑦⑥①⑤ |③-④-|
④②口⑧ |⑤-⑥⑦|
⑨口口⑨ |⑧-⑨-|
73
口①③① |①-②-|
口口口口 |③-④-|
口④④口
口口②口

口⑧口⑧
⑥⑤口⑩
⑦口口⑦ |⑤⑥⑦-|
口⑨⑨口 |⑧-⑨⑩|
74
①口①口 |①--②|
⑥口口⑥ |③--④|
⑤③③⑤ |⑤---|
②⑥⑥④ |⑥---|
75
口④口⑤ |①②③④|
口②③口 |⑤-⑥⑦|
口⑥①⑦
口口口口

口口口口
口口口口
⑫口⑬口 |⑧⑨⑩⑪|
⑩⑧⑪⑨ |⑫⑬--|
76
口④口⑤ |①②③④|
①②③口 |⑤-⑥⑦|
⑫⑥⑬⑦ |⑧⑨⑩⑪|
⑩⑧⑪⑨ |⑫⑬--|
77
口④口⑤ |①②③④|
①②③口 |⑤-⑥⑦|
口口口口
口⑥口⑦

⑭⑮口口
⑫⑬口口
⑩⑪口口 |⑧⑨⑩⑪|
⑧口⑨口 |⑫⑬⑭⑮|
78
口口①② |①②③④|
⑩⑪⑫③ |⑤⑥⑦⑧|
⑨⑭⑬④ |⑨⑩⑪⑫|
⑧⑦⑥⑤ |⑬⑭--|
79
口①口① |①---|
口口口口 |----|
口口口口 |----|
口口口口 |----|

accuracy: 100%
最終更新:2022年04月07日 13:36