アットウィキロゴ
Midsummer Madness
Hommarju

BASIC

Level: 3
BPM: 200
Notes: 202

1
口口口口 |----|
口口口口 |----|
口口口口 |----|
口口口口 |----|
2
口口口口 |①---|
口①口口 |----|
口口口口 |----|
口口口口 |----|
3
口口口口 |①---|
口口①口 |----|
口口口口 |----|
口口口口 |----|
4
口口口口 |①---|
口口口口 |----|
口口①口 |----|
口口口口 |----|
5
口口口口 |①---|
口口口口 |----|
口①口口 |----|
口口口口 |----|
6
口口口口 |①---|
口①口口 |----|
口口口口 |----|
口口口口 |----|
7
口口口口 |①---|
口口①口 |----|
口口口口 |----|
口口口口 |----|
8
口口口口 |①---|
口口口口 |----|
口口①口 |----|
口口口口 |----|
9
口口口口 |①---|
口口口口 |----|
口①口口 |----|
口口口口 |----|
10
口口口口 |①---|
口①①口 |----|
口①①口 |----|
口口口口 |----|
11
口口口口 |----|
口口口口 |----|
口口口口 |----|
口口口口 |----|
12
口口口口 |----|
口口口口 |----|
口口口口 |----|
口口口口 |----|
13
口口口口 |----|
口口口口 |----|
口口口口 |----|
口口口口 |----|
14
口口口口 |①---|
口口口口 |----|
口①①口 |----|
口口口口 |----|
15
口口口口 |----|
口口口口 |----|
口口口口 |----|
口口口口 |----|
16
口口口口 |①---|
口①①口 |----|
口口口口 |----|
口口口口 |----|
17
口口口口 |----|
口口口口 |----|
口口口口 |----|
口口口口 |----|
18
口口口口 |①---|
①口口① |----|
口口口口 |----|
口口口口 |----|
19
口口口口 |----|
口口口口 |----|
口口口口 |----|
口口口口 |----|
20
口口口口 |①---|
口口口口 |----|
①口口① |----|
口口口口 |----|
21
口口口口 |----|
口口口口 |----|
口口口口 |----|
口口口口 |----|
22
口口口口 |①---|
口口口口 |----|
口口口口 |----|
口①①口 |----|
23
口口口口 |①---|
口口口口 |----|
口①①口 |----|
口口口口 |----|
24
口口口口 |①---|
口①①口 |----|
口口口口 |----|
口口口口 |----|
25
口①①口 |①---|
口口口口 |----|
口口口口 |----|
口口口口 |----|
26
口口口口 |①---|
口口口口 |----|
口口②口 |②---|
口口①口 |----|
27
口口②口 |①---|
口口①口 |----|
口口口口 |②---|
口口口口 |----|
28
口①口口 |①---|
口②口口 |----|
口口口口 |②---|
口口口口 |----|
29
口口口口 |①---|
口口口口 |----|
口①口口 |②---|
口②口口 |----|
30
口口口口 |①---|
口口口口 |----|
①②口口 |②---|
口口口口 |----|
31
口口口口 |①---|
口口口口 |----|
口口①② |②---|
口口口口 |----|
32
口口口口 |①---|
口②①口 |----|
口口口口 |②---|
口口口口 |----|
33
口口口口 |①---|
②口口② |----|
口①①口 |②---|
口口口口 |----|
34
口口口口 |①---|
口口口口 |----|
口②口口 |②---|
口①口口 |----|
35
口②口口 |①---|
口①口口 |----|
口口口口 |②---|
口口口口 |----|
36
口口①口 |①---|
口口②口 |----|
口口口口 |②---|
口口口口 |----|
37
口口口口 |①---|
口口口口 |----|
口口①口 |②---|
口口②口 |----|
38
口口口口 |①---|
口口口口 |----|
口口②① |②---|
口口口口 |----|
39
口口口口 |①---|
口口口口 |----|
②①口口 |②---|
口口口口 |----|
40
口口口口 |①---|
口①②口 |----|
口口口口 |②---|
口口口口 |----|
41
口口口口 |①---|
②口口② |----|
口①①口 |②---|
口口口口 |----|
42
口口口① |①---|
口口口口 |----|
口口口口 |----|
口口口口 |----|
43
口口①口 |①---|
口口口口 |----|
口口口口 |----|
口口口口 |----|
44
口口口口 |①---|
口口口口 |----|
口①①口 |----|
口口口口 |----|
45
口口口口 |----|
口口口口 |----|
口口口口 |----|
口口口口 |----|
46
①口口口 |①---|
口口口口 |----|
口口口口 |----|
口口口口 |----|
47
口①口口 |①---|
口口口口 |----|
口口口口 |----|
口口口口 |----|
48
口口口口 |①---|
口口口口 |----|
口①①口 |----|
口口口口 |----|
49
口口口口 |----|
口口口口 |----|
口口口口 |----|
口口口口 |----|
50
口口口口 |①---|
口口口口 |----|
口口口口 |----|
口①①口 |----|
51
口口口口 |①---|
口口口口 |----|
口①①口 |----|
口口口口 |----|
52
口口口口 |①---|
口①①口 |----|
口口口口 |----|
口口口口 |----|
53
口①①口 |①---|
口口口口 |----|
口口口口 |----|
口口口口 |----|
54
①口口② |①---|
口口口口 |----|
口口口口 |②---|
口口口口 |----|
55
①口口口 |①---|
口②②口 |----|
口口口口 |②---|
口口口口 |----|
56
②口口① |①---|
口口口口 |----|
口口口口 |②---|
口口口口 |----|
57
口口口口 |①---|
②①①② |----|
口口口口 |②---|
口口口口 |----|
58
②口口① |①---|
口口口口 |----|
口口口口 |②---|
口口口口 |----|
59
口口口① |①---|
口②②口 |----|
口口口口 |②---|
口口口口 |----|
60
①口口② |①---|
口口口口 |----|
口口口口 |②---|
口口口口 |----|
61
口口口口 |①---|
②①①② |----|
口口口口 |②---|
口口口口 |----|
62
口口口口 |①---|
口口口口 |----|
口①口口 |----|
口①口口 |----|
63
口口口口 |①---|
口口口口 |----|
口口①口 |----|
口口①口 |----|
64
口口口口 |①---|
口口口口 |----|
口①②口 |②---|
口①②口 |----|
65
口口口口 |①---|
②①①② |----|
口口口口 |②---|
口口口口 |----|
66
①口口口 |①---|
口口口口 |----|
口口口口 |----|
口口口口 |----|
67
口①口口 |①---|
口口口口 |----|
口口口口 |----|
口口口口 |----|
68
口口口口 |①---|
口口口口 |----|
口①①口 |----|
口口口口 |----|
69
口口口口 |----|
口口口口 |----|
口口口口 |----|
口口口口 |----|
70
口口口① |①---|
口口口口 |----|
口口口口 |----|
口口口口 |----|
71
口口①口 |①---|
口口口口 |----|
口口口口 |----|
口口口口 |----|
72
口口口口 |①---|
口口口口 |----|
口①①口 |----|
口口口口 |----|
73
口口口口 |----|
口口口口 |----|
口口口口 |----|
口口口口 |----|
74
口口口口 |①---|
①口口① |----|
口口口口 |----|
口口口口 |----|
75
①口口① |①---|
口口口口 |----|
口口口口 |----|
口口口口 |----|
76
口口口口 |----|
口口口口 |----|
口口口口 |----|
口口口口 |----|
77
口口口口 |----|
口口口口 |----|
口口口口 |----|
口口口口 |----|
78
口口口口 |①---|
口口口口 |----|
口口口口 |----|
口①①口 |----|
79
口口口口 |①---|
口口口口 |----|
口①①口 |----|
口口口口 |----|
80
口口口口 |①---|
口①①口 |----|
口口口口 |----|
口口口口 |----|
81
口①①口 |①---|
口口口口 |----|
口口口口 |----|
口口口口 |----|
82
口口口口 |①---|
口口口口 |----|
口口②② |②---|
口口①① |----|
83
口口②② |①---|
口口①① |----|
口口口口 |②---|
口口口口 |----|
84
①①口口 |①---|
②②口口 |----|
口口口口 |②---|
口口口口 |----|
85
口口口口 |①---|
口口口口 |----|
①①口口 |②---|
②②口口 |----|
86
口口口口 |①---|
①②口口 |----|
①②口口 |②---|
口口口口 |----|
87
口口口口 |①---|
口口①② |----|
口口①② |②---|
口口口口 |----|
88
口①②口 |①---|
口②①口 |----|
口口口口 |②---|
口口口口 |----|
89
口口口口 |①---|
②口口② |----|
口①①口 |②---|
口口口口 |----|
90
口口口口 |①---|
口口口口 |----|
②②口口 |②---|
①①口口 |----|
91
②②口口 |①---|
①①口口 |----|
口口口口 |②---|
口口口口 |----|
92
口口①① |①---|
口口②② |----|
口口口口 |②---|
口口口口 |----|
93
口口口口 |①---|
口口口口 |----|
口口①① |②---|
口口②② |----|
94
口口口口 |①---|
口口②① |----|
口口②① |②---|
口口口口 |----|
95
口口口口 |①---|
②①口口 |----|
②①口口 |②---|
口口口口 |----|
96
口②①口 |①---|
口①②口 |----|
口口口口 |②---|
口口口口 |----|
97
口口口口 |①---|
②口口② |----|
口①①口 |②---|
口口口口 |----|
98
口口口口 |①---|
口①①口 |----|
口①①口 |----|
口口口口 |----|

accuracy: 100%
最終更新:2022年04月26日 17:28