アットウィキロゴ
Midsummer Madness
Hommarju

ADVANCED

Level: 6
BPM: 200
Notes: 346

1
口口口口 |----|
口口口口 |----|
口口口口 |----|
口口口口 |----|
2
①口口① |①---|
口口口口 |----|
口口口口 |----|
口口口口 |----|
3
口口口口 |①---|
①口口① |----|
口口口口 |----|
口口口口 |----|
4
口口口口 |①---|
口口口口 |----|
①口口① |----|
口口口口 |----|
5
口口口口 |①---|
口口口口 |----|
口口口口 |②---|
①②②① |----|
6
①口口① |①---|
口口口口 |----|
口口口口 |----|
口口口口 |----|
7
口口口口 |①---|
①口口① |----|
口口口口 |----|
口口口口 |----|
8
口口口口 |①---|
口口口口 |----|
①口口① |----|
口口口口 |----|
9
口口口口 |①---|
口口口口 |----|
口口口口 |②---|
①②②① |----|
10
口①①口 |①---|
口①①口 |----|
口口口口 |----|
口口口口 |----|
11
口口口口 |----|
口口口口 |----|
口口口口 |----|
口口口口 |----|
12
口口口口 |----|
口口口口 |----|
口口口口 |----|
口口口口 |----|
13
口口口口 |----|
口口口口 |----|
口口口口 |----|
口口口口 |----|
14
口口口口 |①---|
口口口口 |----|
口口口口 |②---|
①①②② |----|
15
口口口口 |①---|
口口口③ |----|
口口口② |②---|
①①口口 |③---|
16
口口口口 |①---|
口口口口 |----|
①①②② |②---|
口口口口 |----|
17
口口口口 |①---|
口口口② |----|
①①口③ |②---|
口口口口 |③---|
18
口口口口 |①---|
①①②② |----|
口口口口 |----|
口口口口 |②---|
19
口口口口 |①---|
①①口口 |----|
口口口② |②---|
口口口③ |③---|
20
口口口口 |①---|
口口口口 |----|
①①②② |②---|
口口口口 |----|
21
口口口口 |①---|
口口口口 |----|
口口口口 |②---|
①①②② |----|
22
口口口口 |①---|
口口口口 |----|
①①①① |----|
口口口口 |----|
23
口口口口 |①---|
①口口① |----|
口口口口 |----|
口口口口 |----|
24
①口口① |①---|
口口口口 |----|
口口口口 |----|
口口口口 |----|
25
口口口② |①---|
口口②口 |----|
①口口口 |②---|
口①口口 |----|
26
口口口口 |①---|
口口口口 |----|
①①②② |②---|
口口口口 |----|
27
口②④口 |①---|
口①③口 |②---|
口口口口 |③---|
口口口口 |④---|
28
口口口口 |①---|
①①②② |----|
口口口口 |②---|
口口口口 |----|
29
口口口口 |①---|
口口口口 |②---|
口①③口 |③---|
口②④口 |④---|
30
口口口口 |①---|
口口口口 |----|
①①②② |②---|
口口口口 |----|
31
②口口④ |①---|
①口口③ |②---|
口口口口 |③---|
口口口口 |④---|
32
口口口口 |①---|
口①②口 |----|
口①②口 |②---|
口口口口 |----|
33
口①①口 |①---|
口口口口 |----|
口口口口 |②---|
口②②口 |----|
34
口口口口 |①---|
口口口口 |----|
②②①① |②---|
口口口口 |----|
35
口④②口 |①---|
口③①口 |②---|
口口口口 |③---|
口口口口 |④---|
36
口口口口 |①---|
②②①① |----|
口口口口 |②---|
口口口口 |----|
37
口口口口 |①---|
口口口口 |②---|
口③①口 |③---|
口④②口 |④---|
38
口口口口 |①---|
口口口口 |----|
②②①① |②---|
口口口口 |----|
39
④口口② |①---|
③口口① |②---|
口口口口 |③---|
口口口口 |④---|
40
口口口口 |①---|
口②①口 |----|
口②①口 |②---|
口口口口 |----|
41
②口口口 |①---|
口②口口 |----|
口口口① |②---|
口口①口 |----|
42
口口口口 |①---|
口③②口 |②---|
口④①口 |③---|
口口口口 |④---|
43
口口口口 |①---|
口③②口 |②---|
口④①口 |③---|
口口口口 |④---|
44
口口口口 |①---|
③口口② |②---|
④口口① |③---|
口口口口 |④---|
45
③口口② |①---|
口口口口 |②---|
口口口口 |③---|
④口口① |④---|
46
口口口口 |①---|
口③②口 |②---|
口④①口 |③---|
口口口口 |④---|
47
口口口口 |①---|
口③②口 |②---|
口④①口 |③---|
口口口口 |④---|
48
口口口口 |①---|
③口口② |②---|
④口口① |③---|
口口口口 |④---|
49
③口口② |①---|
口口口口 |②---|
口口口口 |③---|
④口口① |④---|
50
口口口口 |①---|
口口口口 |----|
①①①① |----|
口口口口 |----|
51
口口口口 |①---|
①口口① |----|
口口口口 |----|
口口口口 |----|
52
①口口① |①---|
口口口口 |----|
口口口口 |----|
口口口口 |----|
53
口口口② |①---|
口口②口 |----|
①口口口 |②---|
口①口口 |----|
54
①口口口 |①---|
②口口口 |②---|
③口口口 |③---|
④口口口 |④---|
55
口口口口 |①---|
口口口口 |②---|
口口口④ |③---|
口①②③ |④---|
56
口④③② |①---|
口口口① |②---|
口口口口 |③---|
口口口口 |④---|
57
①口口口 |①---|
口口口口 |----|
口口口② |②---|
口口②口 |----|
58
口口口① |①---|
口口口② |②---|
口口口③ |③---|
口口口④ |④---|
59
口口口口 |①---|
口口口口 |②---|
④口口口 |③---|
③②①口 |④---|
60
②③④口 |①---|
①口口口 |②---|
口口口口 |③---|
口口口口 |④---|
61
②口口① |①---|
口②口口 |----|
口口口口 |②---|
口口口口 |----|
62
口②②口 |①---|
③口口① |②---|
③口口① |③---|
口口口口 |----|
63
口②②口 |①---|
③口口① |②---|
③口口① |③---|
口口口口 |----|
64
口②②口 |①---|
③口口① |②---|
③口口① |③---|
口④④口 |④---|
65
②口口口 |①---|
口②口① |----|
口口口① |②---|
口口口口 |----|
66
口口口口 |①---|
口③②口 |②---|
口④①口 |③---|
口口口口 |④---|
67
口口口口 |①---|
口③②口 |②---|
口④①口 |③---|
口口口口 |④---|
68
口口口口 |①---|
③口口② |②---|
④口口① |③---|
口口口口 |④---|
69
③口口② |①---|
口口口口 |②---|
口口口口 |③---|
④口口① |④---|
70
口口口口 |①---|
口③②口 |②---|
口④①口 |③---|
口口口口 |④---|
71
口口口口 |①---|
口③②口 |②---|
口④①口 |③---|
口口口口 |④---|
72
口口口口 |①---|
③口口② |②---|
④口口① |③---|
口口口口 |④---|
73
③口口② |①---|
口口口口 |②---|
口口口口 |③---|
④口口① |④---|
74
口口口口 |①---|
口口口口 |----|
①①①① |----|
口口口口 |----|
75
①口口① |①---|
口口口口 |----|
口口口口 |----|
口口口口 |----|
76
口口口口 |----|
口口口口 |----|
口口口口 |----|
口口口口 |----|
77
口口口口 |----|
口口口口 |----|
口口口口 |----|
口口口口 |----|
78
口口口口 |①---|
口口口口 |----|
①口口① |----|
口口口口 |----|
79
口口口口 |①---|
①口口① |----|
口口口口 |----|
口口口口 |----|
80
①口口① |①---|
口口口口 |----|
口口口口 |----|
口口口口 |----|
81
②口口口 |①---|
口②口口 |----|
口口口① |②---|
口口①口 |----|
82
口口口口 |①---|
口口口口 |②---|
④③②① |③---|
口口口口 |④---|
83
口④②口 |①---|
口③①口 |②---|
口口口口 |③---|
口口口口 |④---|
84
口口口口 |①---|
④③②① |②---|
口口口口 |③---|
口口口口 |④---|
85
口口口口 |①---|
口口口口 |②---|
口③①口 |③---|
口④②口 |④---|
86
口口口口 |①---|
口口口口 |②---|
④③②① |③---|
口口口口 |④---|
87
④口口② |①---|
③口口① |②---|
口口口口 |③---|
口口口口 |④---|
88
口口口口 |①---|
口②①口 |----|
口①②口 |②---|
口口口口 |----|
89
口①①口 |①---|
口口口口 |----|
口口口口 |②---|
口②②口 |----|
90
口口口口 |①---|
口口口口 |②---|
①②③④ |③---|
口口口口 |④---|
91
口②④口 |①---|
口①③口 |②---|
口口口口 |③---|
口口口口 |④---|
92
口口口口 |①---|
①②③④ |②---|
口口口口 |③---|
口口口口 |④---|
93
口口口口 |①---|
口口口口 |②---|
口①③口 |③---|
口②④口 |④---|
94
口口口口 |①---|
口口口口 |②---|
①②③④ |③---|
口口口口 |④---|
95
②口口④ |①---|
①口口③ |②---|
口口口口 |③---|
口口口口 |④---|
96
口口口口 |①---|
口①②口 |----|
口②①口 |②---|
口口口口 |----|
97
口口口② |①---|
口口②口 |----|
①口口口 |②---|
口①口口 |----|
98
口口口口 |①---|
口口口口 |----|
口①①口 |----|
口①①口 |----|

accuracy: 100%
最終更新:2022年04月26日 18:22