アットウィキロゴ
Midsummer Madness
Hommarju

EXTREME

Level: 10.1
BPM: 200
Notes: 822

1
口口口口 |----|
口口口口 |----|
口口口口 |----|
口口口口 |----|
2
⑤①①④ |①-②-|
③①①⑥ |③-④-|
⑦口②口 |⑤-⑥-|
口口口⑧ |⑦-⑧-|
3
⑥口口⑤ |①-②-|
④口①⑦ |③-④-|
⑧口口③ |⑤-⑥-|
口②口口 |⑦-⑧-|
4
口口口口 |①-②-|
⑤口口⑥ |③-④-|
⑦①口④ |⑤-⑥-|
③口②⑧ |⑦-⑧-|
5
口口口口 |①-②-|
④②⑧⑦ |③-④-|
口口口③ |⑤-⑥-|
⑤⑥①口 |⑦-⑧-|
6
⑤①①④ |①-②-|
③口口⑥ |③-④-|
⑦口②口 |⑤-⑥-|
口口口⑧ |⑦-⑧-|
7
⑥口口⑤ |①-②-|
④①①⑦ |③-④-|
⑧口口③ |⑤-⑥-|
口②口口 |⑦-⑧-|
8
口口口口 |①-②-|
⑤口口⑥ |③-④-|
⑦①①④ |⑤-⑥-|
③口②⑧ |⑦-⑧-|
9
口①口⑤ |①-②-|
④②⑧⑦ |③-④-|
口口口③ |⑤-⑥-|
⑤⑥①口 |⑦-⑧-|
10
①口口口 |①---|
口①口口 |----|
口口①口 |----|
口口口① |----|
11
口口口口 |----|
口口口口 |----|
口口口口 |----|
口口口口 |----|
12
口口口口 |----|
口口口口 |----|
口口口口 |----|
口口口口 |----|
13
口口口口 |----|
口口口口 |----|
口口口口 |----|
口口口口 |----|
14
口口口口 |①②③-|
①⑥⑨④ |④-⑤-|
③⑧口口 |⑥⑦⑧-|
②⑦⑩⑤ |⑨-⑩-|
15
口口⑨口 |①②③-|
①⑦口④ |④-⑤-|
③口⑧口 |⑥-⑦-|
②⑥口⑤ |⑧-⑨-|
16
①⑥口口 |①②③-|
③⑧⑨④ |④-⑤-|
②⑦口口 |⑥⑦⑧-|
口口⑩⑤ |⑨-⑩-|
17
①⑥口口 |①②③-|
③口⑧④ |④-⑤-|
②⑦口口 |⑥-⑦-|
口口⑨⑤ |⑧-⑨-|
18
口⑤⑩口 |①②③-|
①口口⑥ |④-⑤-|
③⑨④⑧ |⑥⑦⑧-|
②口口⑦ |⑨-⑩-|
19
口⑤口口 |①②③-|
①⑨⑥口 |④-⑤-|
③口④口 |⑥-⑦-|
②⑧⑦口 |⑧-⑨-|
20
⑥⑩⑤① |①②③-|
⑧口口③ |④-⑤-|
⑦④⑨② |⑥⑦⑧-|
口口口口 |⑨-⑩-|
21
口⑨⑧口 |①②③-|
口口⑤① |④-⑤-|
口⑥⑦③ |⑥-⑦-|
口④口② |⑧-⑨-|
22
①口口① |①--②|
①口③① |--③-|
⑥口⑤口 |-④--|
口口②④ |⑤-⑥-|
23
口口口口 |①--②|
①③口口 |--③-|
口⑤口⑥ |-④--|
④②口口 |⑤-⑥-|
24
口⑥口口 |①--②|
口口③① |--③-|
口口⑤口 |-④--|
口口②④ |⑤-⑥-|
25
⑤⑧④① |①-②-|
⑥⑦③② |③-④-|
口口口口 |⑤-⑥-|
口口口口 |⑦-⑧-|
26
口口口口 |①②③-|
口口口① |④-⑤-|
⑤口②④
口③口①

⑧口口⑥
⑦口口口
口口口口 |⑥--⑦|
⑥口⑦⑧ |--⑧-|
27
口口②口 |①-②③|
口③⑦⑨ |④-⑤-|
④口①⑤ |⑥-⑦-|
口⑥⑧口 |⑧-⑨-|
28
①口口口 |①②③-|
口②口口 |④-⑤-|
④口③⑤
口口口口

⑧口口⑥
⑦口口口
口口口口 |⑥--⑦|
⑥口⑦⑧ |--⑧-|
29
口口②口 |①-②③|
口③⑧⑥ |④-⑤-|
④口①⑤ |⑥-⑦-|
口⑨⑦口 |⑧-⑨-|
30
⑧口①⑥ |①②③-|
⑦②口口 |④-⑤-|
④口③⑤ |⑥--⑦|
⑥口⑦⑧ |--⑧-|
31
口口②口 |①-②③|
口③⑨⑥ |④-⑤-|
口①④⑤ |⑥-⑦-|
口⑧⑦口 |⑧-⑨-|
32
①④⑨⑥ |①②③-|
③口口⑧ |④-⑤-|
②⑤⑩⑦ |⑥⑦⑧-|
口口口口 |⑨-⑩-|
33
④口⑦⑨ |①②③-|
口④⑤口 |④-⑤-|
④口⑧⑥ |⑥-⑦-|
①③②口 |⑧-⑨-|
34
⑥口口⑧ |①②③-|
①口口⑦ |④-⑤-|
④②口⑤ |⑥--⑦|
⑧⑦③⑥ |--⑧-|
35
口②口口 |①-②③|
⑨⑦③口 |④-⑤-|
⑤①口④ |⑥-⑦-|
口⑧⑥口 |⑧-⑨-|
36
口口口① |①②③-|
口口②口 |④-⑤-|
⑤③口④
口口口口

⑥口口⑧
口口口⑦
口口口口 |⑥--⑦|
⑧⑦口⑥ |--⑧-|
37
口②口口 |①-②③|
⑥⑧③口 |④-⑤-|
⑤①口④ |⑥-⑦-|
口⑦⑨口 |⑧-⑨-|
38
⑥①口⑧ |①②③-|
口口②⑦ |④-⑤-|
⑤③口④ |⑥--⑦|
⑧⑦口⑥ |--⑧-|
39
口②口口 |①-②③|
⑥⑨③口 |④-⑤-|
⑤④①口 |⑥-⑦-|
口⑦⑧口 |⑧-⑨-|
40
⑥⑨④① |①②③-|
⑧口口③ |④-⑤-|
⑦⑩⑤② |⑥⑦⑧-|
口口口口 |⑨-⑩-|
41
⑤⑧④① |①-②-|
⑥⑦③② |③-④-|
口口口口 |⑤-⑥-|
口口口口 |⑦-⑧-|
42
口口口① |①-②-|
口口③口 |③-④-|
①②口⑤ |⑤---|
④口⑥口 |⑥---|
43
口口③口 |①---|
口口口④ |②---|
①口③口 |③---|
口②口④ |④---|
44
口①口① |①---|
②口②口 |②---|
口③口口 |③---|
④口口口 |④---|
45
口口口口 |①---|
口口口④ |②---|
①口③口 |③---|
口②口④ |④---|
46
口口口① |①-②-|
口口③口 |③-④-|
①②口⑤ |⑤---|
④口⑥口 |⑥---|
47
口口③口 |①---|
口口口④ |②---|
①口③口 |③---|
口②口④ |④---|
48
口①口① |①---|
②口②口 |②---|
口③口口 |③---|
④口口口 |④---|
49
口口口口 |①---|
口口口口 |②---|
①口③口 |③---|
口②口④ |④---|
50
①口口① |①--②|
①③口① |--③-|
口⑤口⑥ |-④--|
④②口口 |⑤-⑥-|
51
口口口口 |①--②|
口口③① |--③-|
⑥口⑤口 |-④--|
口口②④ |⑤-⑥-|
52
口口⑥口 |①--②|
①③口口 |--③-|
口⑤口口 |-④--|
④②口口 |⑤-⑥-|
53
①④⑧⑤ |①-②-|
②③⑦⑥ |③-④-|
口口口口 |⑤-⑥-|
口口口口 |⑦-⑧-|
54
②④⑧⑥ |①-②-|
口口口口 |③-④-|
口③⑤口 |⑤-⑥-|
口①⑦口 |⑦-⑧-|
55
②④⑧⑥ |①-②-|
口口⑧口 |③-④-|
口③⑤⑦ |⑤-⑥-|
口①⑦口 |⑦-⑧-|
56
②④⑧⑥ |①-②-|
口口口口 |③-④-|
口③⑤口 |⑤-⑥-|
口①⑦口 |⑦-⑧-|
57
②④⑧⑤ |①-②-|
口③⑥口 |③-④-|
⑧③⑤⑦ |⑤-⑥-|
⑨①⑦口 |⑦-⑧⑨|
58
②④⑧⑥ |①-②-|
口口口口 |③-④-|
口③⑤口 |⑤-⑥-|
口①⑦口 |⑦-⑧-|
59
②④⑧⑥ |①-②-|
口口⑧口 |③-④-|
口③⑤⑦ |⑤-⑥-|
口①⑦口 |⑦-⑧-|
60
②④⑧⑥ |①-②-|
口口口口 |③-④-|
口③⑤口 |⑤-⑥-|
口①⑦口 |⑦-⑧-|
61
⑬⑫⑪⑩ |①-②③|
②⑤⑧⑦ |④-⑤⑥|
③⑥⑨④ |⑦-⑧⑨|
④⑦⑩① |⑩⑪⑫⑬|
62
口口口口 |①-②-|
②口口⑤ |③-④-|
④口口③ |⑤-⑥-|
⑥口口① |----|
63
口口口口 |①-②-|
⑤③①口 |③-④-|
口口口口 |⑤-⑥-|
口②④⑥ |----|
64
口⑦口② |①-②-|
口⑤口④ |③-④-|
口③口⑥ |⑤-⑥-|
口①口⑧ |⑦-⑧-|
65
口⑨②⑧ |①-②-|
口④⑩⑥ |③-④-|
⑤⑪③口 |⑤⑥⑦⑧|
⑦①⑫口 |⑨⑩⑪⑫|
66
①口口口 |①-②-|
口③口口 |③-④-|
⑤口②① |⑤---|
口⑥口④ |⑥---|
67
口③口口 |①---|
④口口口 |②---|
口③口① |③---|
④口②口 |④---|
68
①口①口 |①---|
口②口② |②---|
口口③口 |③---|
口口口④ |④---|
69
口口口口 |①---|
④口口口 |②---|
口③口① |③---|
④口②口 |④---|
70
①口口口 |①-②-|
口③口口 |③-④-|
⑤口②① |⑤---|
口⑥口④ |⑥---|
71
口③口口 |①---|
④口口口 |②---|
口③口① |③---|
④口②口 |④---|
72
①口①口 |①---|
口②口② |②---|
口口③口 |③---|
口口口④ |④---|
73
口口口口 |①---|
口口口口 |②---|
口③口① |③---|
④口②口 |④---|
74
①①①① |①---②-|
④口②口 |--③---|
③口⑤口 |④---⑤-|
⑥口口口 |--⑥---|
75
①口口① |①---|
口口口口 |--②---|
口口口口 |----|
口②②口 |----|
76
口口口口 |①②③-|
④⑨⑥① |④-⑤-|
口口⑧③ |⑥⑦⑧-|
⑤⑩⑦② |⑨-⑩-|
77
口⑨口口 |①②③-|
④口⑦① |④-⑤-|
口⑧口③ |⑥-⑦-|
⑤口⑥② |⑧-⑨-|
78
②⑥③① |①--②|
③④口② |--③-|
①口①④ |-④--|
④③⑤② |⑤-⑥-|
79
②⑥④① |①--②|
③④口③ |--③-|
①②①口 |-④--|
④③⑤② |⑤-⑥-|
80
②⑥④① |①--②|
③口②④ |--③-|
口口①③ |-④--|
④③⑤② |⑤-⑥-|
81
⑥口口⑦ |①-②-|
口②③口 |③-④-|
⑤①④⑧ |⑤-⑥-|
口口口口 |⑦-⑧-|
82
口⑤口口 |①②③-|
③口口口 |④-⑤-|
口②口口
①④①口

⑥口⑦⑧
口口口口
⑦口口口 |⑥--⑦|
⑧口口⑥ |--⑧-|
83
口④口口 |①-②③|
⑥口③口 |④-⑤-|
⑧①⑦② |⑥-⑦-|
口⑤⑨口 |⑧-⑨-|
84
口④口① |①②③-|
口口②口 |④-⑤-|
口③口口
口⑤口口

⑥口⑦⑧
口口口口
⑦口口口 |⑥--⑦|
⑧口口⑥ |--⑧-|
85
口④口口 |①-②③|
⑨口③口 |④-⑤-|
⑦①⑧② |⑥-⑦-|
口⑤⑥口 |⑧-⑨-|
86
⑥④⑦⑧ |①②③-|
口口②口 |④-⑤-|
⑦③口① |⑥--⑦|
⑧⑤口⑥ |--⑧-|
87
口口口口 |①-②③|
⑧①③口 |④-⑤-|
⑦④⑨② |⑥-⑦-|
口⑤⑥口 |⑧-⑨-|
88
口②③① |①②③-|
口⑤口④ |④-⑤-|
口⑩口⑨ |⑥⑦⑧-|
口⑦⑧⑥ |⑨-⑩-|
89
①④口④ |①②③-|
③口④口 |④-⑤-|
②⑧⑤⑦ |⑥-⑦-|
口⑥口⑨ |⑧-⑨-|
90
⑧④①⑥ |①②③-|
⑦②口口 |④-⑤-|
③口口口 |⑥--⑦|
⑥⑤⑦⑧ |--⑧-|
91
口⑤⑨口 |①-②③|
⑧①⑦② |④-⑤-|
⑥口③口 |⑥-⑦-|
口④口口 |⑧-⑨-|
92
口⑤口口 |①②③-|
口③口口 |④-⑤-|
口口②口
口④口①

⑧口口⑥
⑦口口口
口口口口 |⑥--⑦|
⑥口⑦⑧ |--⑧-|
93
口⑤⑥口 |①-②③|
⑦①⑧② |④-⑤-|
⑨口③口 |⑥-⑦-|
口④口口 |⑧-⑨-|
94
⑧⑤口⑥ |①②③-|
⑦③口① |④-⑤-|
口口②口 |⑥--⑦|
⑥④⑦⑧ |--⑧-|
95
口⑤⑥口 |①-②③|
⑦④⑨② |④-⑤-|
⑧①③口 |⑥-⑦-|
口口口口 |⑧-⑨-|
96
口⑦⑧⑥ |①②③-|
口⑩口⑨ |④-⑤-|
口⑤口④ |⑥⑦⑧-|
口②③① |⑨-⑩-|
97
口口⑥⑤ |①-②-|
口口⑦⑧ |③-④-|
口口③④ |⑤-⑥-|
口口②① |⑦-⑧-|
98
口口口口 |①---|
①①口口 |----|
①①口口 |----|
口口口口 |----|

accuracy: 100%
最終更新:2022年04月27日 02:33