アットウィキロゴ
Jetcoaster Windy
BEMANI Sound Team "dj TAKA" feat.のの

BASIC

Level: 4
BPM: 268
Notes: 367

1
口口口口 |----|
口口口口 |----|
口口口口 |----|
口口口口 |----|
2
口口口口 |----|
口口口口 |----|
口口口口 |----|
口口口口 |----|
3
口口口口 |①---|
口②②口 |----|
口①①口 |----|
口口口口 |--②-|
4
口口口口 |----|
口口口口 |----|
口口口口 |----|
口口口口 |----|
5
口口口口 |①---|
②口口② |----|
①口口① |----|
口口口口 |--②-|
6
口口口口 |----|
口口口口 |----|
口口口口 |----|
口口口口 |----|
7
口②②口 |①---|
口口口口 |----|
口口口口 |----|
口①①口 |--②-|
8
口口口口 |----|
口口口口 |----|
口口口口 |----|
口口口口 |----|
9
②口口② |①---|
口口口口 |----|
口口口口 |----|
①口口① |--②-|
10
口口口口 |----|
口口口口 |----|
口①口口 |①---|
口口口口 |----|
11
口①①口 |----|
口口口口 |①---|
口口口口 |----|
口②②口 |--②-|
12
口口口口 |----|
口口口口 |----|
口口口口 |----|
口口口口 |----|
13
①口口① |①---|
口口口口 |----|
口口口口 |----|
②口口② |--②-|
14
口口口口 |----|
口口口口 |----|
口口口口 |----|
口口口口 |----|
15
口口口口 |①---|
口①①口 |----|
口②②口 |----|
口口口口 |--②-|
16
口口口口 |----|
口口口口 |----|
口口口口 |----|
口口口口 |----|
17
①口口① |①---|
口口口口 |----|
口口口口 |----|
口口口口 |----|
18
口口口口 |①---|
①口口① |----|
口口口口 |----|
口口口口 |----|
19
口口口口 |①---|
口口口口 |----|
口①①口 |----|
口①①口 |----|
20
口口口口 |----|
口口口口 |----|
口口口口 |----|
口口口口 |----|
21
②③口口 |①---|
口口口口 |②---|
口口口口 |----|
①口口口 |③---|
22
口口口口 |----|
口口口口 |①---|
口口口口 |----|
口口②① |②---|
23
口口口口 |----|
口口口口 |①---|
①②口口 |----|
口口口口 |②---|
24
口口口口 |----|
口口②① |①---|
口口口口 |----|
口口口口 |②---|
25
口口口口 |----|
①②口口 |①---|
口口口口 |----|
口口口口 |②---|
26
口口口口 |----|
口口口口 |①---|
口口②① |----|
口口口口 |②---|
27
口口口口 |----|
口口口口 |①---|
口口口口 |----|
①②口口 |②---|
28
口口②① |----|
口口口口 |①---|
口口口口 |----|
口口口口 |②---|
29
①口口口 |----|
口口口口 |①---|
口口口口 |----|
②口口口 |②---|
30
口口口① |----|
口口口口 |①---|
口口口口 |----|
口口口② |②---|
31
口①口口 |----|
口口口口 |①---|
口口口口 |----|
口②口口 |②---|
32
口口①口 |----|
口口口口 |①---|
口口口口 |----|
口口②口 |②---|
33
口口口口 |----|
①口口口 |①---|
②口口口 |----|
口口口口 |②---|
34
口口口口 |----|
口口口① |①---|
口口口② |----|
口口口口 |②---|
35
口口口口 |----|
口①口口 |①---|
口②口口 |----|
口口口口 |②---|
36
口口口口 |----|
口口①口 |①---|
口口②口 |----|
口口口口 |②---|
37
③口口口 |①---|
口口口口 |②---|
口口口口 |----|
①口②口 |③---|
38
口口口口 |①---|
③①口口 |--②-|
口口口② |----|
口口口口 |③---|
39
口口口口 |①---|
口口口② |--②-|
③①口口 |----|
口口口口 |③---|
40
口②口口 |①---|
口口口口 |--②-|
口口口口 |----|
口①口口 |----|
41
口口口口 |①---|
②口口口 |--②-|
口①①③ |----|
口口口口 |③---|
42
口口口口 |①---|
口口口③ |--②-|
②口口口 |----|
口口①口 |③---|
43
口口口③ |①---|
口口口口 |--②-|
口口①口 |----|
②口口口 |③---|
44
①口口口 |①---|
口口口口 |②---|
口口口口 |③---|
口③②口 |----|
45
口口口② |----|
口口口口 |①---|
口口口口 |----|
①口口口 |②---|
46
口口口口 |①---|
口口①③ |--②-|
②口口口 |----|
口口口口 |③---|
47
口口口口 |①---|
②口口口 |--②-|
口口①③ |----|
口口口口 |③---|
48
口口②口 |①---|
口口口口 |--②-|
口口口口 |----|
口口①口 |----|
49
口口口口 |①---|
口口口② |--②-|
③①①口 |----|
口口口口 |③---|
50
口口口口 |①---|
③口口口 |--②-|
口口口② |----|
口①口口 |③---|
51
③口口口 |①---|
口口口口 |--②-|
口①口口 |----|
口口口② |③---|
52
口口口① |①---|
口口口口 |②---|
口口口口 |③---|
口②③口 |----|
53
口②口口 |①---|
口①①口 |----|
口口口口 |----|
口口口口 |②---|
54
口口④口 |①---|
口口口① |②---|
③口口口 |③---|
口口②口 |④---|
55
口口口口 |①---|
口口口口 |----|
口②口① |②---|
口口口口 |----|
56
②口口① |①---|
口口③口 |--②-|
口口口口 |----|
口口口口 |③---|
57
口口口口 |①---|
口口口口 |--②-|
口口口③ |----|
口①②口 |③---|
58
口口口口 |①---|
口口口① |--②-|
③口口口 |----|
口②口口 |③---|
59
口口口口 |①---|
①口口③ |--②-|
口口②口 |----|
口口口口 |③---|
60
口②口① |①---|
口口③口 |②---|
口④口口 |③---|
口口口口 |④---|
61
口口口口 |①---|
口口口口 |----|
口口口口 |----|
口口①口 |----|
62
口口①口 |①---|
②口口口 |②---|
口口口④ |③---|
口③口口 |④---|
63
口①口口 |①---|
口口口口 |----|
口口②口 |②---|
口口口口 |----|
64
①口口② |①---|
口③口口 |--②-|
口口口口 |----|
口口口口 |③---|
65
④口口口 |①---|
③口口口 |--②-|
②口口口 |--③-|
口口①口 |--④-|
66
口口口口 |----|
口口口口 |----|
口口口口 |----|
口口口口 |----|
67
口口口④ |①---|
口口口③ |--②-|
口口口② |--③-|
口①口口 |--④-|
68
③口②口 |----|
口①口口 |①---|
口口口口 |②---|
口口口口 |③---|
69
口口口口 |①---|
口口口口 |----|
口口①① |----|
口口②② |②---|
70
口口口口 |----|
口口口口 |----|
口口口口 |----|
口口口口 |----|
71
口口口口 |①---|
口口口口 |----|
①①口口 |----|
②②口口 |②---|
72
口③③口 |----|
口②②口 |①---|
口①①口 |②---|
口口口口 |③---|
73
①口口口 |①---|
口口口口 |②---|
口口口口 |③---|
口④③② |④---|
74
口口口② |①---|
口口口口 |②---|
口③④口 |③---|
①口口口 |④---|
75
②口口口 |①---|
口④③口 |②---|
口口口① |③---|
口口口口 |④---|
76
口口②② |①---|
①口口口 |--②-|
口③口口 |----|
口口口口 |③---|
77
口口口口 |①---|
②③④口 |②---|
口口口口 |③---|
口口①口 |④---|
78
②口口口 |①---|
口口口① |②---|
口④③口 |③---|
口口口口 |④---|
79
口口口② |①---|
口口口口 |②---|
①口口口 |③---|
③口口④ |④---|
80
口②①口 |①---|
口④③口 |②---|
口口口口 |③---|
口口口口 |④---|
81
①口口口 |①---|
口口口口 |②---|
口口口口 |③---|
口④③② |④---|
82
口口口② |①---|
口口口口 |②---|
口③④口 |③---|
①口口口 |④---|
83
②口口口 |①---|
口④③口 |②---|
口口口① |③---|
口口口口 |④---|
84
口口②② |①---|
①口口口 |--②-|
口③口口 |----|
口口口口 |③---|
85
口口口口 |①---|
②③④口 |②---|
口口口口 |③---|
口口①口 |④---|
86
②口口口 |①---|
口口口① |②---|
口④③口 |③---|
口口口口 |④---|
87
口口口② |①---|
口口口口 |②---|
①口口口 |③---|
③口口④ |④---|
88
口②①口 |①---|
口④③口 |②---|
口口口口 |③---|
口口口口 |④---|
89
口口口口 |①---|
口口口口 |----|
口口①口 |----|
口口口口 |----|
90
口口口口 |----|
口口口口 |----|
口口口口 |----|
口口口口 |----|
91
口口口④ |①---|
口口③口 |②---|
口②口口 |③---|
①口口口 |④---|
92
①口口口 |①---|
口②口口 |②---|
口口③口 |③---|
口口口④ |④---|
93
口①②口 |①---|
③口口④ |②---|
口口口口 |③---|
口口口口 |④---|
94
口口口口 |①---|
口口口口 |②---|
①口口② |③---|
口③④口 |④---|
95
口口口口 |①---|
口口口口 |②---|
口③④口 |③---|
①口口② |④---|
96
口①①口 |①---|
口口口口 |----|
口口口口 |----|
口口口口 |----|
97
口口口口 |①---|
口②口④ |②---|
①口③口 |③---|
口口口口 |④---|
98
口口口口 |①---|
①口③口 |②---|
口②口④ |③---|
口口口口 |④---|
99
口②口④ |①---|
口口口口 |②---|
口口口口 |③---|
①口③口 |④---|
100
①口③口 |①---|
口口口口 |②---|
口口口口 |③---|
口②口④ |④---|
101
口①口口 |①---|
口口②口 |②---|
口③口口 |③---|
口口④口 |④---|
102
①口口口 |①---|
口口口② |②---|
③口口口 |③---|
口口口④ |④---|
103
口口④口 |①---|
口③口口 |②---|
口口②口 |③---|
口①口口 |④---|
104
口口口④ |①---|
③口口口 |②---|
口口口② |③---|
①口口口 |④---|
105
①口④口 |①---|
口口③口 |--②-|
口口②口 |--③-|
口口口口 |--④-|
106
口口口口 |----|
①口口口 |①---|
口口口② |②---|
③口口口 |③---|
107
口②口① |①---|
口③口口 |--②-|
口④口口 |--③-|
口口口口 |--④-|
108
口口口③ |----|
②口口口 |①---|
口口口① |②---|
口口口口 |③---|
109
①口口口 |①---|
口口④口 |--②-|
口口③口 |--③-|
口口②口 |--④-|
110
①口口口 |----|
口口口② |①---|
③口口口 |②---|
口口口口 |③---|
111
口②口① |①---|
口③口口 |--②-|
口④口口 |--③-|
口口口口 |--④-|
112
②口口① |----|
口口口口 |----|
口口口口 |①---|
口口口口 |②---|
113
口口口口 |----|
口口①① |①---|
③口口口 |--②-|
②口口口 |--③-|
114
口口①口 |----|
口②口口 |①---|
口口③口 |②---|
口口口口 |③---|
115
①口口口 |①---|
口口口④ |--②-|
口口口③ |--③-|
口口口② |--④-|
116
口口口口 |----|
口口口口 |----|
口口②口 |①---|
口①口口 |②---|
117
①口口② |①---|
口口口③ |--②-|
口口口④ |--③-|
口口口口 |--④-|
118
①口口口 |----|
口口②口 |①---|
③口口口 |②---|
口口口口 |③---|
119
口口①① |①---|
口口口口 |----|
口口口口 |②---|
口口②② |----|
120
①①口口 |①---|
口口口口 |----|
口口口口 |②---|
②②口口 |----|
121
口口①① |①---|
口①口口 |----|
口②口口 |②---|
口口②② |----|
122
①①口口 |①---|
口口①口 |----|
口口②口 |②---|
②②口口 |----|
123
口口口口 |①---|
①口口① |----|
①口口① |----|
口口口口 |----|
124
口口口口 |----|
口口口口 |----|
口口口口 |----|
口口口口 |----|
125
口口口口 |----|
口口口口 |----|
口口口口 |----|
口口口口 |----|

accuracy: 100%
最終更新:2022年05月15日 04:44