アットウィキロゴ
Jetcoaster Windy
BEMANI Sound Team "dj TAKA" feat.のの

ADVANCED

Level: 7
BPM: 268
Notes: 543

1
口口口口 |----|
口口口口 |----|
口口口口 |----|
口口口口 |----|
2
①②③④ |①---|
口口口口 |②---|
口口口口 |③---|
口口口口 |④---|
3
口口口口 |①---|
口④③口 |--②-|
口④③② |--③-|
①①口② |--④-|
4
①口口口 |----|
口口口口 |①---|
口口口口 |②---|
口②口③ |③---|
5
口口①① |①---|
口③④口 |--②-|
②③④口 |--③-|
②口口口 |--④-|
6
口①口口 |----|
口口口口 |①---|
口口口口 |②---|
口②③口 |③---|
7
①口④④ |①---|
①口③③ |--②-|
口口②② |--③-|
口口口口 |--④-|
8
口口口口 |----|
口口口口 |①---|
口口口口 |②---|
①③口② |③---|
9
④④口口 |①---|
③③口口 |--②-|
②②口口 |--③-|
口口①口 |--④-|
10
口口②① |----|
口口②① |----|
口口口口 |①---|
口口口口 |②---|
11
①①口口 |----|
口口口口 |①---|
口口口③ |--②-|
口口②口 |--③-|
12
口口口口 |----|
口②③口 |①---|
①②③口 |②---|
①口口口 |③---|
13
①①③③ |①---|
口口口口 |--②-|
④④口口 |--③-|
口②口口 |--④-|
14
②口口口 |----|
口口口口 |----|
口口口口 |①---|
口口口① |②---|
15
口口口口 |①---|
口④③② |--②-|
口④③② |--③-|
口①①口 |--④-|
16
②②①① |----|
口口口口 |①---|
口口口口 |②---|
口③③口 |③---|
17
口口口口 |①---|
①③②① |②---|
口口④口 |③---|
口口口口 |④---|
18
口①①口 |①---|
口口口口 |②---|
③口口② |③---|
口口口④ |④---|
19
口口口口 |①---|
①①①① |----|
口口口口 |----|
口口口口 |----|
20
口口④口 |①---|
口口③口 |②---|
口口②口 |③---|
口口①口 |④---|
21
②口口④ |①---|
口口口口 |②---|
口口口口 |③---|
①口口③ |④---|
22
口②④口 |①---|
口口口口 |②---|
口口口口 |③---|
口①③口 |④---|
23
②口口④ |①---|
口口口口 |②---|
口口口口 |③---|
①口口③ |④---|
24
口②④口 |①---|
口口口口 |②---|
口口口口 |③---|
口①③口 |④---|
25
②口口④ |①---|
口口口口 |②---|
①口口③ |③---|
口口口口 |④---|
26
口②④口 |①---|
口口口口 |②---|
口①③口 |③---|
口口口口 |④---|
27
②口口④ |①---|
口口口口 |②---|
①口口③ |③---|
口口口口 |④---|
28
口②④口 |①---|
口口口口 |②---|
口①③口 |③---|
口口口口 |④---|
29
②口口④ |①---|
口口口口 |②---|
口口口口 |③---|
①口口③ |④---|
30
口②④口 |①---|
口口口口 |②---|
口口口口 |③---|
口①③口 |④---|
31
②口口④ |①---|
口口口口 |②---|
口口口口 |③---|
①口口③ |④---|
32
口②④口 |①---|
口口口口 |②---|
口口口口 |③---|
口①③口 |④---|
33
②口口④ |①---|
口口口口 |②---|
①口口③ |③---|
口口口口 |④---|
34
口②④口 |①---|
口口口口 |②---|
口①③口 |③---|
口口口口 |④---|
35
②口口④ |①---|
口口口口 |②---|
①口口③ |③---|
口口口口 |④---|
36
口②④口 |①---|
口口口口 |②---|
口①③口 |③---|
口口口口 |④---|
37
口口口② |①---|
口口口口 |②---|
口③口口 |----|
①口口口 |③---|
38
②口口口 |①---|
口口③口 |--②-|
口口口① |----|
口口口口 |③---|
39
口口口② |①---|
①口口口 |--②-|
口口口口 |----|
口③口口 |③---|
40
②口口口 |①---|
口口③口 |--②-|
口口口口 |----|
口口口① |③---|
41
口口③口 |①---|
②口口口 |--②-|
口口口口 |----|
口①口口 |③---|
42
①口口口 |①---|
口③口口 |--②-|
口口口口 |----|
口口口② |③---|
43
口口口口 |①---|
口口口① |--②-|
口口口口 |----|
②口③口 |③---|
44
①口口口 |①---|
口口②口 |②---|
口③口口 |③---|
口口口口 |----|
45
口口口① |----|
口口口口 |①---|
口②口口 |----|
口口口口 |②---|
46
②口口口 |①---|
口口③口 |--②-|
口口口① |----|
口口口口 |③---|
47
口口口② |①---|
①口口口 |--②-|
口口口口 |----|
口③口口 |③---|
48
②口口口 |①---|
口口③口 |--②-|
口口口口 |----|
口口口① |③---|
49
口口③口 |①---|
②口口口 |--②-|
口口口口 |----|
口①口口 |③---|
50
①口口口 |①---|
口③口口 |--②-|
口口口口 |----|
口口口② |③---|
51
口口口口 |①---|
口口口① |--②-|
口口口口 |----|
②口③口 |③---|
52
①口口口 |①---|
口口②口 |②---|
口③口口 |③---|
口口口口 |----|
53
口口口① |①---|
口口口② |②---|
口口口③ |③---|
口口口④ |④---|
54
口①口口 |①---|
口口②口 |②---|
口③口口 |③---|
口口④口 |④---|
55
①口②口 |①---|
口②口口 |----|
口口口口 |②---|
口口口口 |----|
56
口①口口 |①---|
口口①口 |--②-|
口③②口 |----|
口②③口 |③---|
57
口口口① |①---|
口②口口 |--②-|
③口口口 |----|
口口口口 |③---|
58
①口口口 |①---|
口口②口 |--②-|
口口口③ |----|
口口口口 |③---|
59
口口口① |①---|
②口口口 |--②-|
口③口口 |----|
口口口口 |③---|
60
口①口口 |①---|
口③口口 |②---|
口口口② |③---|
口口口口 |----|
61
①口口口 |①---|
②口口口 |②---|
③口口口 |③---|
④口口口 |④---|
62
口口①口 |①---|
口②口口 |②---|
口口③口 |③---|
口④口口 |④---|
63
口②口① |①---|
口口②口 |----|
口口口口 |②---|
口口口口 |----|
64
口口①口 |①---|
口①口口 |--②-|
口②③口 |----|
口③②口 |③---|
65
①④③② |①---|
口口口口 |--②-|
口口口口 |--③-|
口口口口 |--④-|
66
口口口口 |----|
口口口口 |--①-|
③②①口 |--②-|
口口口口 |--③-|
67
②③④① |①---|
口口口口 |--②-|
口口口口 |--③-|
口口口口 |--④-|
68
③口口③ |----|
口口口口 |①---|
①①②② |②---|
口口口口 |③---|
69
口口口口 |①---|
①①②② |----|
口③③口 |②---|
口口口口 |③---|
70
①①②② |----|
口口口口 |①---|
口口口口 |②---|
③口口③ |③---|
71
口口口口 |①---|
口③③口 |----|
①①②② |②---|
口口口口 |③---|
72
①③③口 |----|
口口口口 |①---|
口口口口 |②---|
口口口② |③---|
73
口口口② |①---|
口口口口 |②---|
③④⑤口 |--③-|
①口口口 |④-⑤-|
74
②口口口 |①---|
口⑤④③ |--②-|
口口口① |--③-|
口口口口 |④-⑤-|
75
口口口② |①---|
①口口口 |--②-|
口口口口 |--③-|
③④⑤口 |④-⑤-|
76
②口口口 |①---|
口口③口 |--②-|
口口口口 |----|
口口口① |③---|
77
口⑤④③ |①---|
口口口口 |--②-|
②口口口 |--③-|
口①口口 |④-⑤-|
78
①口口口 |①---|
③④⑤口 |--②-|
口口口口 |--③-|
口口口② |④-⑤-|
79
口口口口 |①---|
口口口① |--②-|
口口口口 |----|
②口③口 |③---|
80
①口口口 |①---|
口口②口 |②---|
口③口口 |③---|
口口口口 |----|
81
口口口① |----|
口口口口 |①---|
②③④口 |--②-|
口口口口 |③-④-|
82
②口口口 |①---|
口⑤④③ |--②-|
口口口① |--③-|
口口口口 |④-⑤-|
83
口口口② |①---|
①口口口 |--②-|
口口口口 |--③-|
③④⑤口 |④-⑤-|
84
②口口口 |①---|
口口③口 |--②-|
口口口口 |----|
口口口① |③---|
85
口⑤④③ |①---|
口口口口 |--②-|
②口口口 |--③-|
口①口口 |④-⑤-|
86
①口口口 |①---|
③④⑤口 |--②-|
口口口口 |--③-|
口口口② |④-⑤-|
87
口口口口 |①---|
口口口① |--②-|
口口口口 |----|
②口③口 |③---|
88
①口口口 |①---|
口口②口 |②---|
口③口口 |③---|
口口口口 |----|
89
④口口口 |①---|
③口口口 |②---|
②口口口 |③---|
①口口口 |④---|
90
口口口④ |①---|
口口口③ |②---|
口口口② |③---|
口口口① |④---|
91
口口④口 |①---|
口③口口 |②---|
口口②口 |③---|
口①口口 |④---|
92
口①口口 |①---|
口口②口 |②---|
口③口口 |③---|
口口④口 |④---|
93
①口口③ |①---|
②口口④ |②---|
口口口口 |③---|
口口口口 |④---|
94
口口口口 |①---|
口口口口 |②---|
口②④口 |③---|
口①③口 |④---|
95
口口口④ |①---|
③口口口 |②---|
口口口② |③---|
①口口口 |④---|
96
①口④口 |①-②-|
口③②口 |--③-|
口③②口 |--④-|
口⑤口口 |⑤---|
97
口口口① |①---|
口口口② |②---|
口口口③ |③---|
口口口④ |④---|
98
①口口口 |①---|
②口口口 |②---|
③口口口 |③---|
④口口口 |④---|
99
口口口口 |①---|
口口口口 |②---|
口③④口 |③---|
口①②口 |④---|
100
口③④口 |①---|
口①②口 |②---|
口口口口 |③---|
口口口口 |④---|
101
口口口口 |①---|
口口口口 |②---|
③口口④ |③---|
①口口② |④---|
102
③口口④ |①---|
①口口② |②---|
口口口口 |③---|
口口口口 |④---|
103
口口口口 |①-②-|
口口口口 |③-④-|
⑤⑥⑦⑧ |⑤-⑥-|
①②③④ |⑦-⑧-|
104
⑤⑥⑦⑧ |①-②-|
①②③④ |③-④-|
口口口口 |⑤-⑥-|
口口口口 |⑦-⑧-|
105
口口口口 |①---|
口④③口 |--②-|
口④③② |--③-|
①①口② |--④-|
106
①口口口 |----|
口口口口 |①---|
口口口口 |②---|
口②口③ |③---|
107
口口①① |①---|
口③④口 |--②-|
②③④口 |--③-|
②口口口 |--④-|
108
口①口口 |----|
口口口口 |①---|
口口口口 |②---|
口②③口 |③---|
109
①口④④ |①---|
①口③③ |--②-|
口口②② |--③-|
口口口口 |--④-|
110
口口口口 |----|
口口口口 |①---|
口口口口 |②---|
①③口② |③---|
111
④④口口 |①---|
③③口口 |--②-|
②②口口 |--③-|
口口①口 |--④-|
112
口口②① |----|
口口②① |----|
口口口口 |①---|
口口口口 |②---|
113
①①口口 |----|
口口口口 |①---|
口口口③ |--②-|
口口②口 |--③-|
114
口口口口 |----|
口②③口 |①---|
①②③口 |②---|
①口口口 |③---|
115
①①③③ |①---|
口口口口 |--②-|
④④口口 |--③-|
口②口口 |--④-|
116
②口口口 |----|
口口口口 |----|
口口口口 |①---|
口口口① |②---|
117
口口口口 |①---|
口④③② |--②-|
口④③② |--③-|
口①①口 |--④-|
118
②②①① |----|
口口口口 |①---|
口口口口 |②---|
口③③口 |③---|
119
口口口口 |①---|
①③②① |②---|
口口④口 |③---|
口口口口 |④---|
120
口①①口 |①---|
口口口口 |②---|
③口口② |③---|
口口口④ |④---|
121
①口口① |①---|
口口口口 |②---|
口③②口 |③---|
口口④口 |④---|
122
口①①口 |①---|
口口口口 |②---|
③口口② |③---|
口口口④ |④---|
123
口口口口 |①---|
①①①① |----|
口口口口 |----|
口口口口 |----|
124
①口口口 |①---|
口②口口 |--②-|
口口③口 |----|
口口口口 |③---|
125
口①①口 |①---|
口口口口 |----|
口口口口 |----|
口口口口 |----|

accuracy: 100%
最終更新:2022年05月15日 04:44