アットウィキロゴ
Jetcoaster Windy
BEMANI Sound Team "dj TAKA" feat.のの

EXTREME

Level: 9.7
BPM: 268
Notes: 841

1
口口口口 |----|
口口口口 |----|
口口口口 |----|
口口口口 |----|
2
①②③④ |①---|
口口口口 |②---|
口口口口 |③---|
口口口口 |④---|
3
口④口口 |①---|
⑤口⑤② |②-③-|
③④③口 |--④-|
①口①口 |--⑤-|
4
②口口③ |----|
口①口口 |①---|
口口口口 |②---|
口口口口 |③---|
5
口口④口 |①---|
②⑤口⑤ |②-③-|
口③④③ |--④-|
口①口① |--⑤-|
6
口口口① |----|
口口口口 |①---|
②口口口 |②---|
口口口③ |③---|
7
①口①口 |①---|
③④③口 |②-③-|
⑤口⑤② |--④-|
口④口口 |--⑤-|
8
口口口口 |----|
③口口口 |①---|
口①口② |②---|
口口口口 |③---|
9
口①口① |①---|
口③④③ |②-③-|
②⑤口⑤ |--④-|
口口④口 |--⑤-|
10
④③②① |----|
口口口⑥ |-①②③④---|
口口口口 |⑤---|
口口口⑤ |⑥---|
11
口③口口 |----|
④②④口 |①---|
①③①口 |②-③-|
口口口口 |--④-|
12
①口口② |----|
口口口口 |①---|
③口口口 |②---|
口口口口 |③---|
13
口口④口 |①---|
②⑤口⑤ |②-③-|
口③④③ |--④-|
口①口① |--⑤-|
14
口②口口 |----|
口口口口 |----|
口口口口 |①---|
①口口口 |②---|
15
①口①口 |①---|
③④③口 |②-③-|
⑤口⑤② |--④-|
口④口口 |--⑤-|
16
口④③口 |--①-|
④口口③ |②---|
口①口口 |③---|
口口②② |④---|
17
④口口① |①---|
口②口口 |②-③-|
口口口① |--④-|
⑤③口口 |--⑤-|
18
口口①② |①---|
口④口① |②-③-|
口口①③ |--④-|
口口口⑤ |--⑤-|
19
口①口口 |①---|
①口①口 |②---|
口①口口 |③---|
②③④口 |④---|
20
②口口① |①-②-|
口⑥⑤口 |③-④-|
④口口③ |⑤-⑥-|
⑧口口⑦ |⑦-⑧-|
21
口口②④ |①---|
口口④② |②---|
口口口口 |③---|
口③①口 |④---|
22
②④口口 |①---|
④②口口 |②---|
口③①口 |③---|
口口口口 |④---|
23
口口②④ |①---|
口口④② |②---|
口口口口 |③---|
口口③① |④---|
24
②④口口 |①---|
④②口口 |②---|
③①口口 |③---|
口口口口 |④---|
25
口口口口 |①---|
口③①口 |②---|
口口②④ |③---|
口口④② |④---|
26
口③①口 |①---|
口口口口 |②---|
②④口口 |③---|
④②口口 |④---|
27
口口③① |①---|
口口口口 |②---|
口口②④ |③---|
口口④② |④---|
28
口口口口 |①---|
①③口口 |②---|
②④口口 |③---|
④②口口 |④---|
29
口口②④ |①---|
口口口口 |②---|
口口④② |③---|
口③①口 |④---|
30
②④口口 |①---|
口③①口 |②---|
④②口口 |③---|
口口口口 |④---|
31
口口②④ |①---|
口口口口 |②---|
口口④② |③---|
口③①口 |④---|
32
②④口口 |①---|
口③①口 |②---|
④②口口 |③---|
口口口口 |④---|
33
口口口口 |①---|
口口②④ |②---|
口③①口 |③---|
口口④② |④---|
34
口③①口 |①---|
②④口口 |②---|
口口口口 |③---|
④②口口 |④---|
35
口口口口 |①---|
口口②④ |②---|
口③①口 |③---|
口口④② |④---|
36
口③①口 |①---|
②④口口 |②---|
口口口口 |③---|
④②口口 |④---|
37
②口口口 |①---|
口口口口 |②---|
口⑥⑤① |③-④-|
口③①④ |⑤-⑥-|
38
口口口口 |①---|
①⑤⑥② |②-③-|
④口口③ |--④-|
口口口口 |⑤-⑥-|
39
③口口① |①---|
②口口④ |②-③-|
口⑥⑤口 |--④-|
口口口口 |⑤-⑥-|
40
口②④③ |①---|
口④③口 |②-③-|
口口口口 |----|
①口口口 |④---|
41
口④口口 |①---|
③口⑤口 |--②-|
①口口口 |--③-|
口①②② |④-⑤-|
42
③口口① |①---|
口口口口 |②-③-|
②⑥口④ |--④-|
口口⑤口 |⑤-⑥-|
43
口④口口 |①---|
口口口② |②-③-|
口口口口 |----|
①口口③ |④---|
44
③口口④ |①---|
③口②④ |②---|
口口口口 |③-④-|
口口①口 |----|
45
口口口口 |----|
口③④口 |①---|
②口口口 |--②-|
①①口口 |③-④-|
46
①口口① |①---|
口口口④ |②-③-|
口⑥⑤② |--④-|
口口③口 |⑤-⑥-|
47
口②③口 |①---|
口⑥⑤口 |②-③-|
口口口④ |--④-|
①口口① |⑤-⑥-|
48
①口口① |①---|
口口口口 |②-③-|
③④②口 |----|
口③④口 |④---|
49
口⑤①③ |①---|
口口口① |--②-|
口口④口 |--③-|
②口口口 |④-⑤-|
50
④口⑥口 |①---|
口口①口 |②-③-|
①⑤口口 |--④-|
口口②③ |⑤-⑥-|
51
口③口口 |①---|
③①②口 |②-③-|
④口口① |----|
口④口口 |④---|
52
口口②② |①---|
口③口口 |②---|
口口口④ |③-④-|
口口①① |----|
53
①口口口 |①---|
②口④① |②---|
③口①口 |③---|
④口口口 |④---|
54
口①①② |①---|
口②口③ |②---|
口③口口 |③---|
口④口④ |④---|
55
①口口③ |①---|
②口③口 |②---|
③口①口 |③---|
④口口口 |④---|
56
口①①口 |①---|
口②口① |②-③-|
口④⑤③ |④---|
口⑤③⑤ |⑤---|
57
①口⑤① |①---|
②口③口 |②-③-|
④口口口 |④---|
⑤口口口 |⑤---|
58
口①口⑤ |①---|
口②口① |②-③-|
口④口口 |④---|
口⑤③口 |⑤---|
59
①口⑤口 |①---|
②口①口 |②-③-|
④口口口 |④---|
⑤口口③ |⑤---|
60
口①口口 |①---|
口②③① |②---|
口③④口 |③-④-|
口⑤②口 |⑤---|
61
①口口① |①---|
口口口② |②---|
口口口③ |③---|
口口口④ |④---|
62
口④①口 |①---|
③口②口 |②---|
口②③口 |③---|
①口④口 |④---|
63
③口口① |①---|
口③口② |②---|
口口口③ |③---|
口①口④ |④---|
64
口①①口 |①---|
①口②口 |②-③-|
③⑤④口 |④---|
⑤③⑤口 |⑤---|
65
①④④② |①---|
口口口② |--②-|
口口口③ |--③-|
口口口③ |--④-|
66
②口口口 |①---|
②口口口 |--②-|
③口①口 |--③-|
③④④口 |--④-|
67
④②口口 |①---|
口①③口 |②-③-|
口口⑤⑤ |--④-|
口口口⑤ |--⑤-|
68
口③②口 |----|
③口口② |①---|
①①口口 |②---|
①口口口 |③---|
69
③口口① |①-②-|
口③①口 |--③-|
⑤⑤⑤⑤ |④---|
口④②口 |⑤---|
70
口②②口 |----|
①口口① |①---|
口口口口 |②---|
③口口③ |③---|
71
③⑤⑤① |①-②-|
口③①口 |--③-|
口口口口 |④---|
口④②口 |⑤---|
72
口口口口 |----|
①③③② |①---|
①①②② |②---|
口③③口 |③---|
73
①⑤口① |①---|
③口口④ |②---|
⑤③④口 |--③-|
②口口② |④-⑤-|
74
⑤口①口 |①---|
口③④口 |--②-|
口⑤口① |--③-|
③②②④ |④-⑤-|
75
口②②① |①---|
口⑤口口 |--②-|
③口①④ |--③-|
⑤③④口 |④-⑤-|
76
②④口③ |①---|
②口①③ |②-③-|
口④口口 |----|
口口口① |④---|
77
口口①⑤ |①---|
口②口口 |--②-|
口口①口 |--③-|
口④③口 |④-⑤-|
78
①口口口 |①---|
口口②口 |--②-|
③口口④ |--③-|
⑤口口口 |④-⑤-|
79
口口口③ |①---|
口口口口 |--②-|
口②口口 |----|
口口口① |③---|
80
口口①口 |①-②-|
②口口口 |③-④-|
⑥⑧⑦③ |⑤-⑥-|
口④⑤口 |⑦-⑧-|
81
口②②① |①---|
③⑤口④ |②---|
口口口口 |--③-|
⑤③④口 |④-⑤-|
82
口③④口 |①---|
⑤口①口 |--②-|
③②②④ |--③-|
口⑤口① |④-⑤-|
83
②⑤口② |①---|
口③④① |--②-|
⑤③④口 |--③-|
口口①口 |④-⑤-|
84
口口①口 |①---|
②口口② |--②-|
口口口① |----|
③③口口 |③---|
85
②口口口 |①---|
口④③口 |--②-|
口口⑤口 |--③-|
口口①① |④-⑤-|
86
口口口② |①---|
⑤口口口 |--②-|
口①口口 |--③-|
口③④口 |④-⑤-|
87
口②口口 |①---|
口口口① |--②-|
口口口③ |----|
口口口③ |③---|
88
③口口④ |①---|
口②②口 |②---|
①③④口 |③-④-|
①口口口 |----|
89
口①①口 |①---|
口口口② |②---|
口口口口 |③-④-|
③④⑤② |⑤---|
90
①口口② |①---|
①口口口 |②---|
③④⑤② |③-④-|
口口口口 |⑤---|
91
口③④口 |①---|
②口口口 |②---|
口口口口 |③---|
①口口口 |④---|
92
口口口口 |①---|
口口口① |②---|
口③④口 |③---|
口口口② |④---|
93
①口口② |①-②-|
口口⑤口 |③-④-|
③口口④ |--⑤-|
口⑥⑦口 |⑥-⑦-|
94
口⑦⑧口 |①-②-|
③口口④ |③-④-|
口⑤⑥口 |⑤-⑥-|
①口口② |⑦-⑧-|
95
①口口② |①-②-|
口③④口 |③-④-|
⑦口口⑧ |⑤-⑥-|
⑤口口⑥ |⑦-⑧-|
96
口⑤④口 |①-②-|
①④⑤口 |--③-|
口③②口 |--④-|
口②③口 |⑤---|
97
⑦口口① |①-②-|
⑧口口② |③-④-|
③口口⑤ |⑤-⑥-|
④口口⑥ |⑦-⑧-|
98
口③⑤口 |①-②-|
口④⑥口 |③-④-|
口⑦①口 |⑤-⑥-|
口⑧②口 |⑦-⑧-|
99
口⑧口① |①-②-|
②口口⑤ |③-④-|
⑥口口③ |⑤-⑥-|
④口⑦口 |⑦-⑧-|
100
④口⑤口 |①-②-|
口⑥①口 |③-④-|
口②⑦口 |⑤-⑥-|
口⑧口③ |⑦-⑧-|
101
⑧口口① |①-②-|
⑥口口③ |③-④-|
④口口⑤ |⑤-⑥-|
②口口⑦ |⑦-⑧-|
102
口②①口 |①-②-|
口④③口 |③-④-|
口⑥⑤口 |⑤-⑥-|
口⑧⑦口 |⑦-⑧-|
103
⑧口口⑥ |①-②-|
⑦口口⑤ |③-④-|
④口口② |⑤-⑥-|
③口口① |⑦-⑧-|
104
口④⑤口 |①-②-|
口⑥③口 |③-④-|
口②①⑦ |⑤-⑥-|
口⑧口口 |⑦-⑧-|
105
口④口口 |①---|
⑤口⑤② |②-③-|
③④③口 |--④-|
①口①口 |--⑤-|
106
③口口④ |--①-|
口②口口 |②---|
口口口① |③---|
口口口口 |④---|
107
口口④口 |①---|
②⑤口⑤ |②-③-|
口③④③ |--④-|
口①口① |--⑤-|
108
口口口② |--①-|
口口口口 |②---|
③口口口 |③---|
①口口④ |④---|
109
①口①口 |①---|
③④③口 |②-③-|
⑤口⑤② |--④-|
口④口口 |--⑤-|
110
口口口口 |--①-|
④口口① |②---|
口②口③ |③---|
口口口口 |④---|
111
口①口① |①---|
口③④③ |②-③-|
②⑤口⑤ |--④-|
口口④口 |--⑤-|
112
⑤④③② |--①-|
口口口⑦ |-②③④⑤---|
口口口口 |⑥---|
①口口⑥ |⑦---|
113
口③口口 |----|
④②④口 |①---|
①③①口 |②-③-|
口口口口 |--④-|
114
②口口③ |--①-|
口口口口 |②---|
④口口① |③---|
口口口口 |④---|
115
口口④口 |①---|
②⑤口⑤ |②-③-|
口③④③ |--④-|
口①口① |--⑤-|
116
口③口口 |----|
口口口口 |①---|
口口口口 |②---|
②口口① |③---|
117
①口①口 |①---|
③④③口 |②-③-|
⑤口⑤② |--④-|
口④口口 |--⑤-|
118
口④③口 |--①-|
④口口③ |②---|
口①口口 |③---|
口口②② |④---|
119
④口口① |①---|
口②口口 |②-③-|
口口口① |--④-|
⑤③口口 |--⑤-|
120
口口①② |①---|
口④口① |②-③-|
口口①③ |--④-|
口⑤口口 |--⑤-|
121
①口口④ |①---|
口口②口 |②-③-|
①口口口 |--④-|
口口③⑤ |--⑤-|
122
②①口口 |①---|
①口④口 |②-③-|
③①口口 |--④-|
⑤口口口 |--⑤-|
123
口口①口 |①---|
口①口① |②---|
口口①口 |③---|
口④③② |④---|
124
①口口口 |①---|
口口口口 |--②-|
口口口② |----|
③口口口 |③---|
125
口口口口 |①---|
①①①① |----|
口①①口 |----|
口口口口 |----|

accuracy: 100%
最終更新:2022年05月15日 05:08