アットウィキロゴ
ラプンツェル
RoughSketch

EXTREME

Level: 10.2
BPM: 195
Notes(hold): 856(53)

1
口口口口 |----|
口口口口 |----|
口口口口 |----|
口①①口 |①---|
2
口口口① |①---|
②①口口 |--②-|
口口②口 |----|
口口口口 |----|
3
口口②口 |①---|
②口口口 |--②-|
③口口① |----|
口①③口 |③---|
4
口口口① |①---|
②①口口 |--②-|
口口②口 |----|
口口口口 |----|
5
口口②口 |①---|
②口口口 |--②-|
口口口① |----|
口①口口 |----|
6
口口口① |①---|
②①①口 |--②-|
口②②口 |----|
口口口口 |----|
7
口②②③ |①---|
②③③口 |--②-|
口口口① |----|
口①①口 |③---|
8
口④口③ |①---|
口③口④ |--②-|
①②②口 |----|
口①①② |③-④-|
9
口口口口 |--①-|
口口口口 |----|
①③②口 |②---|
②①①③ |③---|
10
②口口① |①---|
③①口口 |②-③-|
口口③口 |----|
口口口口 |----|
11
口口③口 |①---|
③口②口 |②-③-|
④口口① |----|
口①④口 |④---|
12
②口口① |①---|
③①口④ |②-③-|
口④③口 |----|
口口口口 |④---|
13
口②③口 |①---|
③口口口 |②-③-|
④口口① |----|
口①④口 |④---|
14
口口口① |①---|
③①①② |②-③-|
口③③口 |----|
口口口口 |----|
15
口③③④ |①---|
③④④② |②-③-|
①口口口 |----|
口①①口 |④---|
16
口②②口 |①---|
②口口② |----|
①口口① |②---|
口①①口 |----|
17
口口口口 |①---|
口口口口 |----|
①∨∨① |----|
∧①①∧ |②---|

口口口口
口口口口
②口口②
口②②口
18
⑥⑩⑤① |①-②③|
②③⑧⑦ |④-⑤-|
口⑨④口 |⑥-⑦⑧|
口口口口 |⑨-⑩-|
19
⑩口⑨① |①-②③|
②口口⑧ |④-⑤-|
③口口⑦ |⑥-⑦⑧|
⑥④口⑤ |⑨-⑩-|
20
口⑥口口 |①-②③|
②③④口 |④-⑤-|
⑤口①口 |⑥-⑦⑧|
⑨⑧⑦口 |⑨-⑩-|

口口口口
口口口口
口口⑩口
口口口口
21
③口⑤口 |①-②-|
①④②口 |③④⑤-|
⑥⑨口⑦ |⑥-⑦⑧|
口口⑧⑩ |⑨-⑩-|
22
⑥⑩⑤① |①-②③|
②③⑧⑦ |④-⑤-|
口⑨④口 |⑥-⑦⑧|
口口口口 |⑨-⑩-|
23
⑩口⑨① |①-②③|
②口口⑧ |④-⑤-|
③口口⑦ |⑥-⑦⑧|
⑥④口⑤ |⑨-⑩-|
24
口口口口 |①---|
口①①口 |----|
口||口 |----|
口∧∧口 |----|
25
②口口① |①-②-|
口①①口 |③-④-|
④⑤⑤③ |⑤---|
口口口口 |⑥-⑦-|

∨⑥口口
⑥∧口口
口口口口
口口口⑥

口⑦口口
⑦口口口
口口口口
口口口口
26
⑦口口② |①-②③|
⑩⑧⑥③ |④-⑤-|
⑤口⑨④ |⑥-⑦⑧|
口①①口 |⑨-⑩-|
27
⑥口⑩② |①-②③|
⑨口⑦③ |④-⑤-|
⑤⑧口④ |⑥-⑦⑧|
口①①口 |⑨-⑩-|
28
⑦口口② |①-②③|
⑩⑧⑥③ |④-⑤-|
⑤口⑨④ |⑥-⑦⑧|
口①①口 |⑨-⑩-|
29
口⑤④③ |①-②-|
⑨⑧⑦口 |③④⑤-|
口⑥口口 |⑥-⑦⑧|
口①口② |⑨-⑩⑪|

口口口口
口口口口
口口口口
⑩⑪口口
30
⑦口口② |①-②③|
⑩⑧⑥③ |④-⑤-|
⑤口⑨④ |⑥-⑦⑧|
口口①口 |⑨-⑩-|
31
⑥口⑩② |①-②③|
⑨口⑦③ |④-⑤-|
⑤⑧口④ |⑥-⑦⑧|
口①①口 |⑨-⑩-|
32
⑦口口② |①-②③|
⑩⑧⑥③ |④-⑤-|
⑤口⑨④ |⑥-⑦⑧|
口①①口 |⑨-⑩-|
33
口③③① |①---|
口口口| |②---|
口口口| |③---|
口②②∧ |④---|

口口口④
口口口口
口口口④
口口口口
34
口口口口 |①---|
口④∨口 |②---|
∨②③口 |③---|
①口口口 |④---|

口口口口
口口口口
口口④口
②口口口
35
∨②③口 |①---|
①④∧口 |②---|
口⑤口口 |③---|
口口口口 |④-⑤-|

口口④口
②口口口
口口口口
口口口口
36
口口口口 |①---|
口口口口 |----|
口口口口 |②---|
口①<口 |③-④-|

③口口口
口④口口
口口口②
口②口口
37
口口口口 |①-②-|
∨口口② |③-④-|
①③口口 |⑤-⑥-|
口口口④ |⑦---|

口⑦口口
⑦口口口
⑤口口⑥
口⑤口口
38
口口∨∨ |①---|
口口①① |----|
口口口口 |②---|
口口口口 |③-④-|

③口口口
口④②②
口口口口
口②口口
39
口口①① |①-②-|
④口∧∧ |③-④-|
口③口口 |⑤-⑥-|
②口口口 |⑦---|

口⑦⑤⑤
口口⑦口
⑤口口口
口⑥口口
40
口口口口 |①---|
口口口口 |--②-|
口口∨∨ |③---|
口口①① |④-⑤-|

口口⑤口
口口口④
口③口口
②口③③
41
④口口口 |①-②-|
②③口口 |③-④-|
口口①① |⑤---|
口口∧∧ |⑥-⑦-|

口⑤口口
口口口口
口口⑤⑤
口⑦⑥口
42
③口口① |①---|
口③①口 |②---|
口口口口 |③---|
②口口④ |④---|
43
③⑤口① |①---|
⑤③①口 |②---|
口口口④ |③-④-|
②口口⑤ |⑤---|
44
口口口口 |①---|
口口口口 |----|
口∨∨口 |②---|
口①①口 |③-④-|

口口口口
④口口②
③口口口
口②②口
45
口③②口 |①-②-|
口④口口 |③-④-|
口①①口 |⑤-⑥⑦|
口∧∧口 |⑧---|

口口口⑥
口口⑤⑦
口⑤⑤⑧
口口口口
46
①<口口 |①---|
①<口口 |----|
口口口口 |②---|
口口口口 |③-④-|

②口口③
②口④口
口口口口
口口②口
47
①②口 |①-②-|
①口③ |③-④-|
口口④口 |⑤---|
口口口口 |⑥---|

口⑤口⑥
口⑤口口
口⑤口口
口口口口
48
①口口口 |①---|
∧口口口 |----|
①口口口 |②---|
∧口口口 |③-④-|

②③口口
口口④口
②口口口
口口②口
49
口口口口 |①---|
口①口① |----|
口|口| |----|
口∧口∧ |----|
50
∨口口口 |①---|
①①①① |----|
口口②口 |②---|
口口口口 |③-④-|

口口③④
口口口口
口口口口
口口口口
51
口⑤④口 |①-②-|
①②口① |--③-|
口口口∧ |--④-|
口③口口 |⑤---|
52
口口口⑥ |①---|
∨口⑤① |②-③-|
①④③口 |--④-|
口口②口 |⑤-⑥-|
53
口口口口 |①---|
口口口① |----|
①口口∧ |----|
口口口口 |----|
54
∨口③④ |①---|
①①口① |----|
口口②口 |②---|
口口口口 |③-④-|
55
口④口口 |①-②-|
①③②① |③-④-|
口⑦口∧ |--⑤-|
口⑥⑤口 |⑥-⑦-|
56
口②③口 |①---|
∨口口① |②-③-|
①口④⑤ |--④-|
口口口⑥ |⑤-⑥-|
57
口口口口 |①---|
口口∨口 |----|
①口|口 |②---|
口口①口 |----|

口口口口
口∨口口
口|口口
口②②口
58
④口④⑤ |①---|
③口①① |②---|
②口③口 |③---|
①①口口 |④-⑤-|
59
口①口口 |①-②-|
口③⑥⑦ |③-④-|
口⑤口② |⑤-⑥-|
口⑦口④ |⑦---|
60
④⑥①① |①---|
②⑦⑦⑦ |②-③-|
口口⑤⑤ |④-⑤-|
①口③③ |⑥-⑦-|
61
口口口口 |--①-|
③口口口 |②---|
口⑥口④ |③-④⑤|
①②⑤⑦ |⑥-⑦-|
62
口口①口 |①---|
③口口① |②---|
②口③③ |③---|
①口口口 |④-⑤-|

④口⑤④
口口④⑤
口口口口
口口口口
63
口①口⑥ |①-②-|
口③⑦⑧ |③-④-|
口⑤④④ |⑤-⑥-|
口⑦③② |⑦-⑧-|
64
口口口口 |①---|
口口口口 |②-③-|
④⑤②口 |--④-|
①⑥③① |⑤-⑥-|
65
口口口口 |①---|
口口口口 |②-③-|
④⑤②口 |--④-|
①⑥③① |⑤-⑥-|
66
口口口口 |①---|
口口口口 |②-③-|
④⑤②口 |--④-|
①⑥③① |⑤-⑥-|
67
口口口口 |①---|
口口口口 |②-③-|
④⑤②口 |④-⑤-|
①口③① |⑥-⑦-|

口口⑥口
口口口⑥
口口口口
⑦⑥口口
68
①②口口 |①-②-|
③④口口 |③-④-|
口⑤⑥∨ |⑤-⑥-|
口⑦⑧① |⑦-⑧-|
69
①②口口 |①-②-|
③④口口 |③-④-|
口⑤⑥口 |⑤-⑥-|
口⑦⑧口 |⑦-⑧-|
70
口口①口 |①-②-|
口③②口 |③-④-|
⑤④口口 |⑤-⑥-|
⑥⑦⑧⑧ |⑦-⑧-|
71
①②③④ |①②③④|
⑤⑥⑦⑧ |⑤⑥⑦⑧|
⑨⑩⑪⑫ |⑨⑩⑪⑫|
⑬⑭⑮⑯ |⑬⑭⑮⑯|
72
①口口口 |①---|
∧口口口 |----|
口口口口 |--②③|
口口口口 |④⑤⑥⑦|

④⑦⑥口
口⑤④口
口③②口
口口口口
73
口口口① |①---|
口口口∧ |----|
口口口① |----|
口口口∧ |②---|

口口口②
②口②口
口口口②
口②口口
74
⑥⑥②口 |①-②-|
口④口⑤ |③-④⑤|
①①②口 |⑥---|
口口③口 |⑦-⑧-|

口口口⑦
口口⑦口
⑧口口口
口⑧口口
75
口口②口 |①-②-|
②③⑥口 |③-④-|
⑦④口① |⑤-⑥-|
口⑦⑤④ |⑦-⑧⑨|

口口口口
口口口口
口口⑨⑧
口口口口
76
口①口口 |①---|
①口口④ |②-③-|
⑤③口口 |④-⑤-|
②⑤③口 |⑥-⑦-|

⑦⑦⑥口
口⑥口口
口口口口
口口口口
77
口口口① |①-②-|
②⑦口⑤ |③-④-|
⑧口⑥③ |⑤-⑥-|
④口口口 |⑦-⑧-|
78
口口⑤⑤ |①---|
④口③口 |②-③④|
口口口口 |⑤---|
口②①① |⑥-⑦-|

⑥口口口
口⑥口口
口口口⑦
口口⑦口
79
⑧②⑧口 |①-②-|
口⑥③② |③-④-|
①口④⑦ |⑤-⑥-|
④⑤⑦口 |⑦-⑧-|
80
口口口口 |①---|
②口③① |②-③-|
③①②口 |--④-|
口口口口 |⑤-⑥-|

口口⑤⑤
口口口口
口⑥口口
④④⑥口
81
口口口口 |①-②③|
②③④口 |④---|
口口口① |⑤-⑥-|
口口口口 |⑦-⑧-|

口⑤⑦口
口口口口
口口⑥⑧
口口口口
82
①⑥⑧⑤ |①②③④|
②口⑤口 |⑤-⑥-|
③⑤口口 |⑦-⑧-|
④口⑦口 |⑨-⑩-|

⑩口口口
口口口口
口口口口
口⑨口口
83
口口口口 |①-②-|
⑥①②① |③-④-|
②③④③ |⑤-⑥-|
④口⑤口 |⑦⑧⑨-|

口口⑧⑦
口⑨口口
口口口口
口⑨口口
84
⑤⑥⑥⑦ |--①-|
口口④① |②-③-|
口③③① |④-⑤⑥|
口口口② |--⑦-|
85
⑥⑦⑧⑨ |①-②-|
口⑤⑤口 |③-④-|
④③③口 |⑤---⑥⑦⑧⑨|
②①①口 |----⑩⑪⑫⑬|

口口口口
口口口口
口口口口
⑬⑫⑪⑩
86
⑥口口⑦ |①-②-|
③⑤口① |③-④⑤|
④②③① |⑥---|
口口⑦口 |⑦---|
87
③①②口 |①---|
⑥③口④ |②-③-|
口口口口 |④-⑤-|
①⑦⑤② |⑥-⑦-|
88
④⑤⑥口 |①-②-|
口口③口 |③---④⑤⑥-|
②口①① |--⑦-|
口口口口 |⑧-⑨-|

口口口∨
⑦口口⑨
口⑦∨口
口⑧⑨⑧
89
口口口口 |①---|
口①<② |--②-|
口口口口 |----|
口口②口 |④⑤⑥⑦|

⑦口口口
⑤④⑥口
口口④口
口口口口
90
口④口② |①-②-|
口⑧口⑥ |③-④-|
口④⑦② |⑤-⑥⑦|
③①⑤口 |⑧-⑨-|

口口口口
口口口口
口口口口
口⑨口口
91
②④⑤口 |①-②-|
口口⑥口 |③-④-|
②④⑦③ |⑤⑥⑦-|
⑧⑨⑩① |⑧⑨⑩-|
92
口④口② |①-②-|
①⑦⑨⑤ |③-④-|
③④⑥② |⑤⑥⑦-|
口口⑧口 |⑧-⑨-|
93
①⑦口⑥ |①-②③|
⑦口口口 |④-⑤-|
②口口⑦ |⑥---|
③④⑦⑤ |⑦---|
94
④口②⑤ |①-②-|
⑧①口⑦ |③-④-|
④⑥②口 |⑤--⑥|
⑩③口⑨ |⑦⑧⑨⑩|
95
⑤②口口 |①-②-|
口③④⑥ |③-④-|
⑤口②① |⑤---|
口④口⑥ |⑥---|
96
⑥③⑥③ |①-②-|
口口口口 |③---|
④口口① |④-⑤-|
②⑤②⑤ |⑥---|
97
口口口口 |①-②③|
②口⑤⑤ |④-⑤-|
口③口① |⑥---|
口口④口 |⑦---|

∨∨口⑦
||口口
||口口
⑥⑥口口
98
口口口口 |①---|
口口口口 |----|
口口口① |----|
①①口① |----|
最終更新:2022年04月07日 13:49