アットウィキロゴ
Alba
須田景凪

BASIC

Level: 2
BPM: 117
Notes: 138

1
口口口口 |----|
口口口口 |----|
口口口口 |----|
口口口口 |----|
2
口口口口 |①---|
口口口口 |----|
口①口口 |----|
口口口口 |----|
3
口口口口 |①---|
口①口口 |----|
口口口口 |----|
口口口口 |----|
4
口口口口 |①---|
口口①口 |----|
口口口口 |----|
口口口口 |----|
5
口口口口 |①---|
口口口口 |----|
口口①口 |----|
口口口口 |----|
6
口口口口 |①---|
①口口口 |----|
口口口口 |----|
口口口口 |----|
7
口口口口 |①---|
口①口口 |----|
口口口口 |----|
口口口口 |----|
8
口口口口 |①---|
口口①口 |----|
口口口口 |----|
口口口口 |----|
9
口口口口 |①---|
口口口① |----|
口口口口 |----|
口口口口 |----|
10
口口口口 |①---|
口口口口 |----|
口口口① |----|
口口口口 |----|
11
口口口口 |①---|
口口口口 |----|
口口①口 |----|
口口口口 |----|
12
口口口口 |①---|
口口口口 |----|
口①口口 |----|
口口口口 |----|
13
口口口口 |①---|
口口口口 |----|
①口口口 |----|
口口口口 |----|
14
口①口口 |①---|
口②口口 |----|
口口口口 |②---|
口口口口 |----|
15
口口口口 |①---|
②口口② |----|
口①口口 |②---|
口口口口 |----|
16
口口①口 |①---|
口口②口 |----|
口口口口 |②---|
口口口口 |----|
17
口口口口 |①---|
②口口② |----|
口口①口 |②---|
口口口口 |----|
18
口①口口 |①---|
口②口口 |----|
口口口口 |②---|
口口口口 |----|
19
口口口口 |①---|
②口口② |----|
口①口口 |②---|
口口口口 |----|
20
口口①口 |①---|
口口②口 |----|
口口口口 |②---|
口口口口 |----|
21
口口口口 |①---|
口口口口 |----|
口口①口 |----|
口口口口 |----|
22
①②③④ |①---|
口口口口 |②---|
口口口口 |③---|
口口口口 |④---|
23
口口口口 |①---|
口口口① |②---|
口口口② |③---|
口口④③ |④---|
24
口口口口 |①---|
④口口口 |②---|
③口口口 |③---|
②①口口 |④---|
25
口口口口 |①---|
②口口② |----|
口①①口 |②---|
口口口口 |----|
26
④③②① |①---|
口口口口 |②---|
口口口口 |③---|
口口口口 |④---|
27
口口口口 |①---|
①口口口 |②---|
②口口口 |③---|
③④口口 |④---|
28
口口口口 |①---|
口口口④ |②---|
口口口③ |③---|
口口①② |④---|
29
口口口口 |①---|
②口口② |----|
口①①口 |②---|
口口口口 |----|
30
口口口口 |①---|
口②口口 |----|
口①口口 |②---|
口口口口 |----|
31
口口口口 |①---|
口口①口 |----|
口口②口 |②---|
口口口口 |----|
32
①①①① |①---|
口口口口 |----|
口口口口 |----|
口口口口 |----|
33
口口口口 |①---|
口①口口 |----|
口口口口 |----|
口口口口 |----|
34
口口口口 |①---|
口口①口 |----|
口口口口 |----|
口口口口 |----|
35
口口口口 |①---|
口口口口 |----|
口口①口 |----|
口口口口 |----|
36
口①口口 |①---|
口②口口 |----|
口口口口 |②---|
口口口口 |----|
37
口口口口 |①---|
②口口② |----|
口①口口 |②---|
口口口口 |----|
38
口口①口 |①---|
口口②口 |----|
口口口口 |②---|
口口口口 |----|
39
口口口口 |①---|
②口口② |----|
口口①口 |②---|
口口口口 |----|
40
口①口口 |①---|
口②口口 |----|
口口口口 |②---|
口口口口 |----|
41
口口口口 |①---|
②口口② |----|
口①口口 |②---|
口口口口 |----|
42
口口①口 |①---|
口口②口 |----|
口口口口 |②---|
口口口口 |----|
43
口口口口 |①---|
口口口口 |----|
口口①口 |----|
口口口口 |----|
44
口口口口 |----|
口②②口 |----|
口①①口 |①---|
口口口口 |②---|
45
①②③④ |①---|
口口口口 |②---|
口口口口 |③---|
口口口口 |④---|
46
口口口口 |①---|
口口口① |②---|
口口口② |③---|
口口④③ |④---|
47
口口口口 |①---|
④口口口 |②---|
③口口口 |③---|
②①口口 |④---|
48
口口口口 |①---|
②口口② |----|
口①①口 |②---|
口口口口 |----|
49
④③②① |①---|
口口口口 |②---|
口口口口 |③---|
口口口口 |④---|
50
口口口口 |①---|
①口口口 |②---|
②口口口 |③---|
③④口口 |④---|
51
口口口口 |①---|
口口口④ |②---|
口口口③ |③---|
口口①② |④---|
52
口口口口 |①---|
②口口② |----|
口①①口 |②---|
口口口口 |----|
53
口口口口 |①---|
口②口口 |----|
口①口口 |②---|
口口口口 |----|
54
口口口口 |①---|
口口①口 |----|
口口②口 |②---|
口口口口 |----|
55
①①①① |①---|
口口口口 |----|
口口口口 |----|
口口口口 |----|
56
口口口口 |①---|
口①口口 |----|
口口口口 |----|
口口口口 |----|
57
口口口口 |①---|
口口①口 |----|
口口口口 |----|
口口口口 |----|
58
口口口口 |①---|
口口口口 |----|
口口①口 |----|
口口口口 |----|

accuracy: 99.5%
最終更新:2024年09月08日 16:05