アットウィキロゴ
Alba
須田景凪

ADVANCED

Level: 6
BPM: 117
Notes: 469

1
口口口口 |----|
口口口口 |----|
口口口口 |----|
口口口口 |----|
2
口①口口 |①---|
口②口口 |--②-|
口口口口 |----|
口口口口 |----|
3
口口①口 |①---|
口口②口 |--②-|
口口口口 |----|
口口口口 |----|
4
口口口口 |①---|
口口口口 |--②-|
口①口口 |----|
口②口口 |----|
5
口口口口 |①---|
口口②口 |--②-|
口③口口 |----|
口口①口 |--③-|
6
⑦⑥⑤口 |①-②-|
口①②④ |③-④-|
口口③口 |--⑤-|
口口口口 |⑥-⑦-|
7
口口口口 |--①-|
口①②③ |②-③-|
④口口口 |----|
口口口口 |--④-|
8
口⑤⑥口 |①---|
①口口② |--②-|
口口④③ |③-④-|
口口口口 |⑤-⑥-|
9
口口口口 |①-②-|
口③②口 |③-④-|
口①④口 |----|
口⑤⑤口 |--⑤-|
10
⑤④④口 |①-②-|
①口口② |③-④-|
口⑥⑥③ |--⑤-|
口⑦⑦口 |⑥-⑦-|
11
口口口口 |--①-|
口③③① |②-③-|
②口口④ |----|
口口口口 |--④-|
12
口口⑤口 |①---|
②口口① |--②-|
③④⑥口 |③-④-|
口口口口 |⑤-⑥-|
13
⑥④④⑤ |①-②-|
口①②口 |③-④-|
口③口口 |--⑤-|
口⑦口口 |⑥-⑦-|
14
口口口口 |①-②-|
⑥⑥③③ |③---|
口口口口 |④-⑤-|
⑤④①② |⑥---|
15
口口口口 |①-②-|
口口③③ |③---|
口口口口
口口①②

④口口口
口⑤口口
口口⑥口 |④⑤⑥-|
口口⑦口 |--⑦-|
16
口口口口 |①-②-|
③③⑥⑥ |③---|
口口口口 |④-⑤-|
②①④⑤ |⑥---|
17
口口口口 |①-②-|
③③口口 |③---|
口口口口
②①口口

口口口④
口口⑤口
口⑥口口 |④⑤⑥-|
口⑦口口 |--⑦-|
18
口口口口 |①-②-|
⑥⑥③③ |③---|
口口口口 |④-⑤-|
⑤④①② |⑥---|
19
口口口口 |①-②-|
口口③③ |③---|
口口口口
口口①②

④口口口
口⑤口口
口口⑥口 |④⑤⑥-|
口口⑦口 |--⑦-|
20
④③④口 |①-②-|
口⑤②⑤ |③---|
⑥①⑥口 |④-⑤-|
口⑦口⑦ |⑥-⑦-|
21
④口口④ |----|
口②①口 |--①-|
口口③口 |②-③-|
⑤口口⑤ |④-⑤-|
22
④口口口 |①-②-|
口③②口 |③-④-|
口②③口
口①①口

口口口口
⑤⑧⑧⑤
⑥口口⑥ |⑤-⑥-|
口⑦⑦口 |⑦-⑧-|
23
②④④② |①-②-|
口口口口 |③-④-|
口①③口
口口口口

⑥口口口
口⑥口口
口口口口 |⑤---|
口⑤⑤口 |⑥---|
24
④口④① |①---|
口⑦①③ |②-③-|
⑤⑦②口 |④-⑤-|
口⑥口⑥ |⑥-⑦-|
25
④④④④ |①-②-|
②口①② |--③-|
⑥口①口 |④---|
⑤③③⑤ |⑤-⑥-|
26
口口口④ |①-②-|
口③②口 |③-④-|
口②③口
口①口口

口口口口
⑤⑧⑧⑤
⑥口口⑥ |⑤-⑥-|
口⑦⑦口 |⑦-⑧-|
27
②④④② |①-②-|
口口⑥⑥ |③-④-|
口①③口 |⑤---|
口⑤⑤口 |⑥---|
28
①①口口 |①---|
口口③口 |②-③-|
口口口口
口②口口

口⑤口⑤
⑦⑥口⑥
口口④口 |④-⑤-|
口口口口 |⑥-⑦-|
29
⑤③④口 |①-②-|
口④②④ |③---|
口①④口 |④---|
⑥口⑥口 |⑤-⑥-|
30
⑤①⑤① |①-②-|
⑥口口② |③-④-|
⑦口口③ |⑤-⑥-|
⑧④⑧④ |⑦-⑧-|
31
②①③① |①---|
口②口③ |--②-|
口口口口 |③-④-|
⑥④⑤⑥ |⑤-⑥-|
32
口①口① |①---|
①口①口 |--②-|
口②②口
口口口口

口口口口
⑤④③口
口口口口 |--③-|
口口口口 |④-⑤-|
33
口①①口 |①---|
口③④⑤ |--②-|
口口口口 |--③-|
口②②口 |④-⑤-|
34
口①①口 |①---|
⑤④③口 |--②-|
口口口口 |--③-|
口②②口 |④-⑤-|
35
口②②口 |①---|
口口口口 |--②-|
口口口口
口①①口

口口口口
口口口口
口口口口 |----|
口③口口 |--③-|
36
口口口口 |①-②-|
⑥⑥③③ |③---|
口口口口 |④-⑤-|
⑤④①② |⑥---|
37
口口口口 |①-②-|
口口③③ |③---|
口口口口
口口①②

④口口口
口⑤口口
口口⑥口 |④⑤⑥-|
口口⑦口 |--⑦-|
38
口口口口 |①-②-|
③③⑥⑥ |③---|
口口口口 |④-⑤-|
②①④⑤ |⑥---|
39
口口口口 |①-②-|
③③口口 |③---|
口口口口
②①口口

口口口④
口口⑤口
口⑥口口 |④⑤⑥-|
口⑦口口 |--⑦-|
40
口口口口 |①-②-|
⑥⑥③③ |③---|
口口口口 |④-⑤-|
⑤④①② |⑥---|
41
口口口口 |①-②-|
口口③③ |③---|
口口口口
口口①②

④口口口
口⑤口口
口口⑥口 |④⑤⑥-|
口口⑦口 |--⑦-|
42
④③④口 |①-②-|
口⑤②⑤ |③---|
⑥①⑥口 |④-⑤-|
口⑦口⑦ |⑥-⑦-|
43
口①口① |----|
口④③口 |--①-|
口②⑤口 |----|
口口口口 |②③④⑤|
44
④口口④ |----|
口②①口 |--①-|
口口③口 |②-③-|
⑤口口⑤ |④-⑤-|
45
④口口口 |①-②-|
口③②口 |③-④-|
口②③口
口①①口

口口口口
⑤⑧⑧⑤
⑥口口⑥ |⑤-⑥-|
口⑦⑦口 |⑦-⑧-|
46
②④④② |①-②-|
口口口口 |③-④-|
口①③口
口口口口

⑥口口口
口⑥口口
口口口口 |⑤---|
口⑤⑤口 |⑥---|
47
④口④① |①---|
口⑦①③ |②-③-|
⑤⑦②口 |④-⑤-|
口⑥口⑥ |⑥-⑦-|
48
④④④④ |①-②-|
②口①② |--③-|
⑥口①口 |④---|
⑤③③⑤ |⑤-⑥-|
49
口口口④ |①-②-|
口③②口 |③-④-|
口②③口
口①口口

口口口口
⑤⑧⑧⑤
⑥口口⑥ |⑤-⑥-|
口⑦⑦口 |⑦-⑧-|
50
②④④② |①-②-|
口口⑥⑥ |③-④-|
口①③口 |⑤---|
口⑤⑤口 |⑥---|
51
①①口口 |①---|
口口③口 |②-③-|
口口口口
口②口口

口⑤口⑤
⑦⑥口⑥
口口④口 |④-⑤-|
口口口口 |⑥-⑦-|
52
⑤③④口 |①-②-|
口④②④ |③---|
口①④口 |④---|
⑥口⑥口 |⑤-⑥-|
53
⑤①⑤① |①-②-|
⑥口口② |③-④-|
⑦口口③ |⑤-⑥-|
⑧④⑧④ |⑦-⑧-|
54
②①③① |①---|
口②口③ |--②-|
口口口口 |③-④-|
⑥④⑤⑥ |⑤-⑥-|
55
口①口① |①---|
①②①口 |--②-|
口口口口 |----|
口口口口 |----|
56
口口①口 |①---|
口口②口 |--②-|
口口口口 |----|
口口口口 |----|
57
口口口口 |①---|
口口口口 |--②-|
口①口口 |----|
口②口口 |----|
58
口口口口 |①---|
口②②口 |--②-|
口口口口 |----|
口口①口 |----|

accuracy: 99.5%
最終更新:2024年09月08日 16:05