アットウィキロゴ
Alba
須田景凪

EXTREME

Level: 8
BPM: 117
Notes: 543

1
口口口口 |----|
口口口口 |----|
口口口口 |----|
口口口口 |----|
2
①口口口 |①---|
口口口口 |--②-|
②口口口 |----|
口口口口 |----|
3
口口①口 |①---|
口口口口 |--②-|
口口②口 |----|
口口口口 |----|
4
①口口口 |①---|
口口口口 |--②-|
②口口口 |----|
口口口口 |----|
5
口口②口 |①---|
口口口口 |--②-|
口③①口 |----|
口口口口 |--③-|
6
口口④④ |①-②-|
口①②口 |③-④-|
口口③口
口口口口

口⑤口口
口口⑥口
口口口口 |--⑤-|
口⑦⑦口 |⑥-⑦-|
7
口口口口 |--①-|
①口口① |②-③-|
口②③口
口口口口

口口④口
口口口④
口口口口 |----|
口口口口 |--④-|
8
口①口② |①---|
①口②口 |--②-|
口口口口
口口口口

③⑥⑤口
口③口口
口口④口 |③-④-|
口口口口 |⑤-⑥-|
9
口口口口 |①-②-|
②口口② |③-④-|
③①⑤③ |----|
口④④口 |--⑤-|
10
④④口口 |①-②-|
②②①① |③-④-|
口③口口
口口口口

口口⑥⑥
口口口口
口⑦口口 |--⑤-|
口口⑤口 |⑥-⑦-|
11
口口口口 |--①-|
①口口① |②-③-|
②口口②
口③③口

口④口口
④口口口
口口口口 |----|
口口口口 |--④-|
12
②口①③ |①---|
口②③① |--②-|
口④口口 |③-④-|
口⑤⑥口 |⑤-⑥-|
13
⑤④④⑥ |①-②-|
②⑦口② |③-④-|
③口①③ |--⑤-|
口口口口 |⑥-⑦-|
14
③③⑦⑦ |①-②-|
⑧口⑤④ |③--④|
口⑥①口 |⑤-⑥-|
口②口口 |⑦--⑧|
15
③③口口 |①-②-|
口①⑦口 |③---|
口口②口 |④⑤⑥-|
口④⑤⑥ |--⑦-|
16
⑥⑥③③ |①-②-|
口④口⑦ |③---|
口①⑤口 |④-⑤-|
口口②口 |⑥--⑦|
17
口口③③ |①-②-|
口⑧①口 |③--④|
口②口口 |⑤⑥⑦-|
⑦⑥⑤④ |--⑧-|
18
③③⑦⑦ |①-②-|
⑧口⑤④ |③--④|
口⑥①口 |⑤-⑥-|
口②口口 |⑦--⑧|
19
③③口口 |①-②-|
⑧①口口 |③--④|
口口②口 |⑤⑥⑦-|
④⑤⑥⑦ |--⑧-|
20
口①③② |①-②-|
口①③口 |③--④|
口④口口
口口口口

⑧⑧⑧⑧
⑤口口⑤
⑥口口⑥ |⑤-⑥-|
口⑦⑦口 |⑦-⑧-|
21
⑤⑦⑦④ |--①-|
⑤口口④ |②-③-|
口①②口 |④-⑤-|
口⑥③口 |⑥-⑦-|
22
③口口③ |①-②-|
口口④口 |③--④|
①①①①
口口②口

口口⑦口
口⑤口⑤
口口⑥口 |⑤-⑥-|
口⑦⑧口 |⑦--⑧|
23
口口口口 |①-②-|
口③口② |③-④-|
①口③④
口口口①

⑦口⑥⑦
⑧口⑤⑧
口口口口 |⑤-⑥-|
口⑤口口 |⑦-⑧-|
24
⑧⑦⑤⑥ |①---|
④②口④ |②-③-|
①⑥③① |④-⑤⑥|
口口口口 |--⑦⑧|
25
口口口口 |--①-|
②①①④ |②--③-④|
①口③①
口口口口

口口⑤口
口口口口
口口口⑦ |-⑤----|
口⑥⑥口 |⑥-⑦-|
26
口口口② |①-②-|
①口①口 |③--④|
口③③口
口口④口

口口⑧口
口口⑦口
⑦口口⑥ |⑤-⑥-|
口⑤口⑤ |⑦--⑧|
27
①口口① |①-②-|
口口口口 |③-④-|
口口②口
③口③④

口口⑦口
口⑤口⑤
口⑥⑥⑦ |⑤---|
口口口口 |⑥--⑦|
28
口①口口 |①---|
②口口口 |②-③-|
①口口口
口口③口

口⑦口口
口⑥口⑥
口④⑤④ |④-⑤-|
口口口口 |⑥-⑦-|
29
⑥④⑤口 |①-②-|
①口③⑦ |③--④|
④②⑦⑤ |⑤---|
口口口口 |⑥-⑦-|
30
⑥⑧⑧② |①-②-|
①④⑤口 |③-④-|
④①口⑤ |⑤-⑥-|
⑦口口③ |⑦-⑧-|
31
口口口口 |①---|
口口口口 |--②-|
②①①②
口①①口

口③③口
③口口③
口口④口 |③-④-|
⑤口口⑥ |⑤-⑥-|
32
口④口口 |①-②-|
③①①口 |③-④-|
口②口口
口①①口

口口口口
口口口口
口口⑤口 |----|
口口⑥口 |⑤-⑥-|
33
口口④口 |①-②-|
①口口口 |③-④-|
口口口③
口②口口

口口口口
口⑤口口
口口⑥口 |--⑤-|
口⑦口口 |⑥-⑦-|
34
口①口④ |①-②-|
口⑥②口 |③-④-|
⑤③⑦口 |--⑤-|
口口口口 |⑥-⑦-|
35
口②③口 |①-②-|
口⑤口① |③-④-|
口口口口 |----|
口口④口 |--⑤-|
36
③③⑦⑦ |①-②-|
⑧口⑤④ |③--④|
口⑥①口 |⑤-⑥-|
口②口口 |⑦--⑧|
37
③③口④ |①-②-|
⑧①⑨口 |③-④-|
口口②口 |⑤⑥⑦-|
口⑤⑥⑦ |⑧-⑨-|
38
⑦⑦③③ |①-②-|
口⑤口⑨ |③-④-|
⑧①⑥④ |⑤-⑥-|
口口②口 |⑦-⑧⑨|
39
④口③③ |①-②-|
⑨⑩①口 |③-④⑤|
口②口口 |⑥⑦⑧-|
⑧⑦⑥⑤ |⑨-⑩-|
40
③③⑧⑧ |①-②-|
⑩口⑥⑤ |③-④⑤|
④⑦①⑨ |⑥-⑦-|
口②口口 |⑧-⑨⑩|
41
③③口④ |①-②-|
⑩①口⑨ |③-④⑤|
口口②口 |⑥⑦⑧-|
⑤⑥⑦⑧ |⑨-⑩-|
42
口①③② |①-②-|
口①③口 |③-④⑤|
口⑤口口
口④口口

⑨⑨⑨⑨
⑥口口⑥
⑦口口⑦ |⑥-⑦-|
⑧口口⑧ |⑧-⑨-|
43
口口口口 |①---|
口①①口 |②---|
口②②口
口口口口

⑥④⑤⑦
④⑥⑦⑤
口口口口 |③---|
口③③口 |④⑤⑥⑦|
44
③⑤⑤② |----|
③口口② |--①-|
口口口口 |②-③-|
口④①口 |④-⑤-|
45
③口口③ |①-②-|
口口④口 |③--④|
①①①①
口口②口

口口⑦口
口⑤口⑤
口口⑥口 |⑤-⑥-|
口⑦⑧口 |⑦--⑧|
46
口口口口 |①-②-|
口③口② |③-④-|
①口③④
口口口①

⑦口⑥⑦
⑧口⑤⑧
口口口口 |⑤-⑥-|
口⑤口口 |⑦-⑧-|
47
⑦口口⑧ |①---|
④⑥⑥④ |②-③-|
①②⑤① |④-⑤⑥|
口口③口 |--⑦⑧|
48
口口③口 |--①-|
②④口③ |②--③-④|
口①④①
①口①口

⑥⑥口口
口口口口
⑤口口⑦ |-⑤----|
口⑤口口 |⑥-⑦-|
49
口口口② |①-②-|
①口①口 |③--④|
口③③口
口口④口

口口⑧口
口口⑦口
⑦口口⑥ |⑤-⑥-|
口⑤口⑤ |⑦--⑧|
50
①口口① |①-②-|
口口口口 |③-④-|
口口②口
③口③④

口口⑦口
口⑤口⑤
口⑥⑥⑦ |⑤---|
口口口口 |⑥--⑦|
51
口①口口 |①---|
②口口口 |②-③-|
①口口口
口口③口

口⑦口口
口⑥口⑥
口④⑤④ |④-⑤-|
口口口口 |⑥-⑦-|
52
⑥④⑤口 |①-②-|
①口③⑦ |③--④|
④②⑦⑤ |⑤---|
口口口口 |⑥-⑦-|
53
⑥⑧⑧② |①-②-|
①④⑤口 |③-④-|
④①口⑤ |⑤-⑥-|
⑦口口③ |⑦-⑧-|
54
口口口口 |①---|
口②②口 |--②-|
口①①口
口①①口

口③③口
③口口③
口口④口 |③-④-|
口⑤⑥口 |⑤-⑥-|
55
①口口① |①---|
口①①口 |--②-|
②口口口 |----|
口口口口 |----|
56
口口①口 |①---|
口口口口 |--②-|
口口②口 |----|
口口口口 |----|
57
①口口口 |①---|
口口口口 |--②-|
②口口口 |----|
口口口口 |----|
58
口②②口 |①---|
口口口口 |--②-|
口口①口 |----|
口口口口 |----|

accuracy: 99.5%
最終更新:2024年09月08日 16:06