アットウィキロゴ
紅蓮華
(LiSA)

BASIC

Level: 2
BPM: 135
Notes: 112

1
口口口口 |----|
口口口口 |----|
口口口口 |----|
口口口口 |----|
2
口口口口 |①---|
口口①口 |----|
口口口口 |----|
口口口口 |----|
3
口口口口 |①---|
口①口口 |----|
口口口口 |----|
口口口口 |----|
4
口口口口 |①---|
口口口口 |----|
口①口口 |----|
口口口口 |----|
5
口口口口 |①---|
口口口口 |----|
口口①口 |----|
口口口口 |----|
6
口口口口 |①---|
口口口① |----|
口口口口 |----|
口口口口 |----|
7
口口口口 |①---|
①口口口 |----|
口口口口 |----|
口口口口 |----|
8
口口②口 |①---|
口①①口 |----|
口口口口 |②---|
口口口口 |----|
9
口②口口 |①---|
口①①口 |----|
口口口口 |②---|
口口口口 |----|
10
口口口口 |①---|
口口②口 |----|
口①①口 |②---|
口口口口 |----|
11
口口口口 |①---|
口②口口 |----|
口①①口 |②---|
口口口口 |----|
12
口口口① |①---|
口口口口 |----|
口口口口 |----|
口口口口 |----|
13
口口口口 |①---|
口口①口 |----|
口口口口 |----|
口口口口 |----|
14
口口口口 |①---|
口口口口 |----|
口①口口 |----|
口口口口 |----|
15
口口口口 |①---|
口口口口 |----|
口口口口 |----|
①口口口 |----|
16
①口口口 |①---|
口口口口 |----|
口口口口 |----|
口口口口 |----|
17
口口口口 |①---|
口①口口 |----|
口口口口 |----|
口口口口 |----|
18
口口口口 |①---|
口口口口 |----|
口口①口 |----|
口口口口 |----|
19
口口口口 |①---|
口口口口 |----|
口口口口 |----|
口口口① |----|
20
口口口口 |①---|
口口口口 |----|
口口②口 |②---|
口口①口 |----|
21
口口口口 |①---|
口口①口 |----|
口口口口 |----|
口口口口 |----|
22
口口口口 |①---|
口口口口 |----|
口②口口 |②---|
口①口口 |----|
23
口口口口 |①---|
口①口口 |----|
口口口口 |----|
口口口口 |----|
24
口口口口 |①---|
口口②口 |----|
口口①口 |②---|
口口口口 |----|
25
口②①口 |①---|
口口口口 |----|
口口口口 |②---|
口口口口 |----|
26
口口口口 |①---|
口①口口 |----|
口口口口 |----|
口口口口 |----|
27
口口口口 |①---|
②口口① |----|
口口口口 |②---|
口口口口 |----|
28
口口口口 |①---|
口口①口 |----|
口口口口 |----|
口口口口 |----|
29
口口口口 |①---|
口①口口 |----|
口口口口 |----|
口口口口 |----|
30
口口口口 |①---|
口口口口 |----|
口①口口 |----|
口口口口 |----|
31
口口口口 |①---|
口口口口 |----|
口口①口 |----|
口口口口 |----|
32
口口口口 |①---|
口口口口 |----|
口口口口 |②---|
②口口① |----|
33
口口口口 |①---|
口口口口 |----|
②口口① |②---|
口口口口 |----|
34
口④口口 |①---|
口口③口 |②---|
口②口口 |③---|
口口①口 |④---|
35
④口①④ |①---|
③口口③ |②---|
②口口② |③---|
口口口口 |④---|
36
口口①口 |①---|
口口②口 |②---|
口口③口 |③---|
口口口口 |----|
37
口①口口 |①---|
口②口口 |②---|
口③口口 |③---|
口口口口 |----|
38
口口口口 |①---|
口口口口 |----|
口②口口 |②---|
口口①口 |----|
39
②口口② |①---|
口①①口 |----|
口口口口 |②---|
口口口口 |----|
40
口口口口 |①---|
口口口口 |----|
③①①口 |②---|
②口口口 |③---|
41
口口口口 |①---|
①口口口 |----|
口口口③ |②---|
口口口② |③---|
42
口口口口 |①---|
口口口① |----|
口口口口 |----|
口口口口 |----|
43
④口口④ |①---|
③口口③ |②---|
②口口② |③---|
口①①口 |④---|
44
口口①口 |①---|
口口②口 |②---|
口口③口 |③---|
口口口口 |----|
45
口①口口 |①---|
口②口口 |②---|
口③口口 |③---|
口口口口 |----|
46
口口口口 |①---|
②口口② |----|
口口口口 |②---|
口①①口 |----|
47
①口口① |①---|
口口②口 |----|
口口口口 |②---|
口口口口 |----|
48
口口口口 |①---|
口②②口 |----|
口①口口 |②---|
口口口口 |----|
49
①口口① |①---|
口口口口 |----|
口口口口 |----|
口口口口 |----|
50
口②②口 |①---|
③③③③ |--②-|
口口口口 |----|
口①①口 |--③-|

accuracy: 100%
最終更新:2022年04月17日 02:22