アットウィキロゴ
紅蓮華
(LiSA)

ADVANCED

Level: 5
BPM: 135
Notes: 325

1
口口口口 |----|
口口口口 |----|
口口口口 |----|
口口口口 |----|
2
口③口口 |①--②|
口口②口 |--③-|
口①①口 |----|
口口口口 |----|
3
口口口口 |①--②|
口①①口 |--③-|
口②口口
口口③口

口口口口
口口④口
口口口口 |----|
口口口口 |--④-|
4
口口③口 |①--②|
口②⑤口 |--③-|
④①口口 |----|
口口口口 |④-⑤-|
5
口口口口 |----|
口口②口 |----|
口口口口 |--①-|
口①口口 |--②-|
6
①口口① |①---|
口③口口 |----|
口口口口 |--②-|
口口②口 |--③-|
7
口①①口 |①---|
口口口口 |----|
口③③口 |--②-|
口②②口 |--③-|
8
①②口① |①---|
口④③口 |②---|
口口口口 |③---|
口口口口 |④---|
9
口口口口 |①---|
口口口口 |②---|
口②①口 |③---|
口④③口 |④---|
10
②口口① |①---|
④口口③ |②---|
口口口口 |③---|
口口口口 |④---|
11
口口口口 |①---|
口口口口 |②---|
②口口① |③---|
④口口③ |④---|
12
口口②口 |①--②|
口①口③ |--③-|
口口口口
口口口口

口口口口
口④⑤口
口口口口 |--④-|
口⑥口口 |⑤--⑥|
13
口④③口 |----|
口②口口 |----|
①口口口 |①-②-|
口口口口 |③-④-|
14
口口口口 |①--②|
口口①口 |----|
口口口口 |----|
口②口口 |----|
15
口⑤④⑦ |--①-|
口③⑥口 |②-③-|
口口②口 |④-⑤-|
口①口口 |⑥-⑦-|
16
①口②口 |①--②|
口④⑤口 |--③-|
口口③口 |--④-|
口⑥口口 |⑤--⑥|
17
口口⑤⑤ |----|
④④③③ |--①-|
②②①① |②-③-|
口口口口 |④-⑤-|
18
①口口口 |①-②-|
口口口口 |----|
口口口口 |----|
口口③② |--③-|
19
口口口② |①--②|
⑤①口口 |--③-|
口③④口 |④---|
口口口口 |--⑤-|
20
口口⑥口 |①--②|
口口①④ |--③-|
口口⑤② |--④-|
口③口口 |⑤--⑥|
21
口口口口 |--①-|
③口口口 |②-③-|
②口口口
①口口口

④口⑤口
口⑥口口
⑦口口口 |④-⑤-|
口口口口 |⑥-⑦-|
22
⑤⑤口口 |①--②|
口口①口 |--③-|
④口口口 |--④-|
口②③口 |⑤---|
23
口口口④ |①-②-|
口口口③ |③-④-|
口口口②
口口口①

口⑤口口
⑧口⑥口
口口口⑦ |⑤-⑥-|
口口口口 |⑦-⑧-|
24
口②口口 |①--②|
口口口口 |--③-|
口口①口
口③口口

口⑥口口
口口口口
④口⑤口 |--④-|
口口口口 |⑤--⑥|
25
⑥⑥①① |----|
②口口⑤ |①-②-|
②口口⑤ |③-④-|
④④③③ |⑤-⑥-|
26
口口口口 |①--②|
口①①口 |----|
口②②口 |----|
口口③口 |--③-|
27
口口③口 |①--②|
口②口口 |--③-|
口口①口
口口口口

⑤④口⑤
口口口口
口⑥⑥口 |④---|
口口口口 |⑤-⑥-|
28
口②口口 |①--②|
口口①口 |----|
口口口口 |----|
口口口口 |----|
29
口口口口 |①--②|
口①①口 |--③-|
口②口口
口口③口

口口口口
口口④口
口口口口 |----|
口口口口 |--④-|
30
口口③口 |①--②|
口②⑤口 |--③-|
④①口口 |----|
口口口口 |④-⑤-|
31
口口口口 |----|
口口②口 |----|
口①口口 |--①-|
口口口口 |--②-|
32
口口口口 |①---|
口口口口 |②---|
②口口②
①①①①

口口⑤口
③口⑤③
口口口口 |③-④-|
口④④口 |--⑤-|
33
③①口③ |①---|
②①口② |②---|
口④⑤口 |③-④-|
口④⑤口 |--⑤-|
34
⑦①①⑧ |①-②-|
⑤口口⑥ |③-④-|
③口口④ |⑤-⑥-|
口口口② |⑦-⑧-|
35
④口口④ |①---|
口③②口 |②---|
口②③口 |③---|
口①①口 |④---|
36
口口口口 |①-②-|
④口口口 |③-④-|
口口口③
②①①口

口口口⑤
口⑥⑦口
口口口口 |⑤-⑥⑦|
口⑧口口 |--⑧-|
37
④口口⑤ |①-②-|
口⑥⑦③ |③-④-|
②口口口 |⑤-⑥⑦|
口⑧口① |--⑧-|
38
口②③口 |①-②③|
口口口口 |--④-|
口口①口
口口口④

口⑦口口
口口口⑥
⑤口⑧口 |⑤-⑥-|
口口口口 |⑦-⑧-|
39
①口口① |①---|
口②②口 |②---|
③口⑤③ |③--④|
口④④口 |--⑤-|
40
②③④⑤ |①---|
口⑥口口 |--②-|
口①口口 |③-④-|
口口口口 |⑤-⑥-|
41
口口口口 |----|
②⑤⑤② |①-②-|
口④④口 |--③-|
①③③① |④-⑤-|
42
①⑤口② |①--②|
口口口口 |--③-|
口口口口 |-④--|
③口口④ |⑤---|
43
④口口④ |①---|
口③②口 |②---|
口②③口 |③---|
口①①口 |④---|
44
口口口口 |①-②-|
④口口口 |③-④-|
口口口③
②①①口

口口口⑤
口⑥⑦口
口口口口 |⑤-⑥⑦|
口⑧口口 |--⑧-|
45
④口口口 |①-②-|
口口口③ |③-④-|
②口口口
口口口①

口口口⑤
口⑥⑦口
⑧口口⑧ |⑤-⑥⑦|
口口口口 |--⑧-|
46
⑤①①④ |①--②|
③⑥⑥③ |--③-|
口⑥⑥口 |--④-|
④②②⑤ |⑤-⑥-|
47
口①口② |----|
①④口口 |①---|
口口④③ |②--③|
②口③口 |--④-|
48
口③口口 |①---|
口口①④ |--②-|
⑤①口口 |--③-|
口②②口 |④-⑤-|
49
②②①① |----|
口③③口 |--①-|
口口口口 |②---|
口口口口 |③---|
50
口口①① |①--②|
⑤⑤④① |--③-|
③②⑥⑥ |-④--|
③③口口 |⑤-⑥-|

accuracy: 100%
最終更新:2022年04月17日 02:32