アットウィキロゴ
紅蓮華
(LiSA)

EXTREME

Level: 8
BPM: 135
Notes: 511

1
口口口口 |----|
口口口口 |----|
口口口口 |----|
口口口口 |----|
2
口口③口 |①--②|
口②口③ |--③-|
口①①口 |----|
口口口口 |----|
3
口口口口 |①--②|
口①①口 |--③-|
③口②④ |----|
口③口口 |--④-|
4
口③口口 |①--②|
③口②口 |--③-|
口①①口
口口口口

口口口口
口口口④
口口⑤口 |----|
口口口口 |④-⑤-|
5
口口口口 |①--②|
口①①口 |--③-|
口②口③
口口③口

口口④口
口⑤口口
⑥口口口 |--④-|
口口口口 |⑤-⑥-|
6
口③口口 |①--②|
②口③口 |--③-|
口①①口
口口口口

口口口口
口口口口
口④④⑤ |--④-|
口口口⑤ |--⑤-|
7
口口口口 |①---|
口口口口 |----|
①口口口
①口口口

口口口口
口口口口
③口口③ |--②-|
口②②口 |--③-|
8
①①①① |①--②|
②④④口 |③-④-|
口③口口
口口口口

⑦口口⑧
口口口⑤
口口⑥口 |-⑤⑥-|
⑨口口⑩ |⑦⑧⑨⑩|
9
⑨①①⑩ |①--②|
②④④⑤ |③-④-|
口③⑥口 |-⑤⑥-|
⑦口口⑧ |⑦⑧⑨⑩|
10
⑦口口⑧ |①--②|
②④④⑤ |③-④-|
口③⑥口 |-⑤⑥-|
⑨①①⑩ |⑦⑧⑨⑩|
11
口②口口 |①-②-|
口④③③ |③-④-|
②④口口
口①口口

⑨口⑤⑨
⑥口口口
⑨口⑦⑨ |⑤⑥⑦⑧|
口⑧口口 |⑨---|
12
口口③口 |①--②|
⑤②④① |--③-|
口口口口 |--④-|
口口口⑥ |⑤--⑥|
13
口口口口 |--①-|
口口口口 |②-③-|
口③②口
①口口口

⑦⑤④⑥
⑤⑦⑥④
口口⑨口 |④⑤⑥⑦|
口⑧⑧口 |⑧-⑨-|
14
口③口口 |①--②|
③口口② |--③-|
口口口口
①口口口

口口口口
口口口口
口口口口 |--④-|
⑤口口④ |⑤---|
15
口①①⑤ |①-②-|
口④③口 |③④-⑤|
②口口口
口口口口

口⑥口口
口口口口
口口⑧口 |--⑥-|
口⑦口口 |⑦-⑧-|
16
口口③口 |①--②|
口②口① |--③-|
口口口口
口口口口

口口口口
口口④⑥
口口口口 |--④-|
⑤口口口 |⑤--⑥|
17
③口口② |----|
口①口口 |①-②③|
口③②口
口口口口

口⑤④口
⑦⑨⑨⑥
⑤口口④ |④⑤⑥⑦|
⑧⑦⑥⑧ |⑧-⑨-|
18
②④④① |①-②-|
口口口⑥ |③-④-|
口⑤⑤口 |----|
口口③口 |⑤-⑥-|
19
口口口③ |①--②|
⑤②②口 |--③-|
①口口口 |④---|
口④口口 |--⑤-|
20
口②①⑥ |①--②|
口口口口 |--③-|
口③④口 |--④-|
口⑤口口 |⑤--⑥|
21
①④口口 |--①②|
②口口口 |③-④-|
③口口口
口口口口

口口口口
口口⑨口
⑩⑦⑧口 |⑤⑥⑦⑧|
⑤⑥口口 |⑨-⑩-|
22
口口③① |①--②|
口口口③ |--③-|
口口口口
②口口口

口口口⑤
口口⑤口
④口口口 |--④-|
口口口口 |⑤---|
23
②⑤口口 |①-②③|
③口口口 |④-⑤-|
④口口口
口口口①

口口口口
口口⑦口
口⑧口口 |⑥-⑦⑧|
⑥⑥口⑨ |--⑨-|
24
①口口口 |①--②|
口⑤口口 |--③-|
口③口口 |--④-|
⑥口②④ |⑤--⑥|
25
④②⑤⑤ |----|
②④口口 |①-②-|
口口③① |③-④-|
⑥⑥①③ |⑤-⑥-|
26
口口口③ |①--②|
②口⑥① |--③-|
②⑤口① |④-⑤-|
口⑦④口 |⑥-⑦-|
27
②⑤⑤① |①--②|
⑤④口⑤ |--③-|
口口③口 |④---|
口口口口 |⑤---|
28
④口③口 |①--②|
口②口③ |--③-|
口①①口 |④---|
口口口① |----|
29
口口口口 |①--②|
口①①口 |--③-|
③口②⑤ |④---|
口③口④ |--⑤-|
30
口③口口 |①--②|
③口②口 |--③-|
口①①口
口口口口

口口口④
口口口⑤
口口⑥口 |④---|
口口口口 |⑤-⑥-|
31
口口口口 |①--②|
口①①口 |--③-|
口②口③
口口③口

口⑥口口
口⑥口口
口口口口 |④-⑤-|
④⑤口⑤ |--⑥-|
32
⑤口①⑤ |①---|
③⑥①③ |②---|
②口④② |③-④-|
口口口口 |⑤-⑥-|
33
口口口口 |①---|
口口口口 |②---|
口②②口
①①①①

口⑤⑤口
口③③口
口口口口 |③-④-|
④口口⑥ |⑤-⑥-|
34
①⑤⑤① |①-②-|
⑦③③⑦ |③-④-|
⑧④④⑧ |⑤-⑥-|
⑥②②⑥ |⑦-⑧-|
35
①口口④ |①②③④|
⑧②③⑦ |⑤--⑥|
⑧⑥口⑦ |⑦---|
⑤⑤⑤⑤ |⑧---|
36
⑤⑤①⑥ |①②③④-⑤----|
口口②⑥ |⑥-⑦-|
口口③口
⑦⑦④口

口口⑨口
口口口口
⑩⑧口⑧ |⑧-⑨⑩|
口口口⑪ |--⑪-|
37
口⑦⑥⑥ |①②③④-⑤----|
①②③④ |⑥-⑦-|
⑦⑤口口
口⑤口口

⑨口口⑪
口口口口
口口⑩口 |⑧-⑨⑩|
⑧口口⑧ |--⑪-|
38
口①口口 |①-②-③-④---⑤----⑥----|
口②口口 |--⑦-|
⑥③口⑦
口④口⑤

⑧口口⑨
口口口口
口口⑪口 |⑧-⑨-|
口⑩口口 |⑩-⑪-|
39
④①①③ |①---|
②口⑤② |②---|
①⑤口① |③--④|
②③④② |--⑤-|
40
②②口口 |①---|
口①口口 |--②-|
口口①口
口口口口

口口口口
口④⑤口
口④⑤口 |--③-|
口口③③ |④-⑤-|
41
②口口② |----|
口⑤⑤口 |①-②-|
口④④口 |--③-|
①③③① |④-⑤-|
42
①④③① |①--②|
⑤口口⑤ |--③-|
口③④口 |-④--|
②口口② |⑤---|
43
⑥②口⑦ |①--②|
⑧⑫③⑨ |③④⑤⑥|
⑭④⑤⑪ |⑦⑧⑨⑩|
⑩①①⑬ |⑪⑫⑬⑭|
44
⑤⑤①⑥ |①②③④-⑤----|
口口②⑥ |⑥-⑦-|
口口③口
⑦⑦④口

⑫口⑨口
口口口口
⑩⑧口⑧ |⑧-⑨⑩|
口口口⑪ |--⑪⑫|
45
口⑦⑥⑥ |①②③④-⑤----|
④③②① |⑥-⑦-|
⑦口口口
口口⑤口

⑨口口口
口⑪口口
口⑪⑩口 |⑧-⑨⑩|
⑧口口⑧ |--⑪-|
46
口口②② |①--②|
①口口口 |--③-|
①口口口
口口③③

口口⑥口
⑥⑤④口
口④⑤⑥ |--④-|
口⑥口口 |⑤-⑥-|
47
②②口口 |①---|
口口口① |②---|
①口口口
口口口口

口口口口
④口口⑤
④口口⑤ |③--④|
口口③③ |--⑤-|
48
口口口④ |①---|
③口①口 |②-③④|
口①口口
口口口②

⑤口⑫口
口⑪口⑥
口⑦⑩口 |⑤⑥⑦⑧|
口⑨⑧口 |⑨⑩⑪⑫|
49
③⑤口③ |①②--|
⑤口口口 |--③-|
①口口② |④---|
①④④② |⑤---|
50
②口①口 |①-②③|
口④口① |--④-|
④口口③
口口③口

⑦⑦⑦⑤
⑥口口口
口⑥口口 |⑤⑥--|
口⑧⑧⑧ |⑦-⑧-|

accuracy: 100%
最終更新:2022年04月17日 03:18