アットウィキロゴ
SPACE INASAKU
BEMANI Sound Team "サイバー劇レコ"

EXTREME

Level: 10.4
BPM: 178
Notes(hold): 621(69)

1
口口口口 |------|
口口口口 |------|
口口口口 |------|
口口口口 |------|
2
口口口口 |①-----|
口②口口 |------|
①口②口 |②-----|
口①口口 |------|
3
口口①口 |①-----|
口口口① |------|
②口③口 |------|
口口口口 |②---③-|
4
口④口② |①-----|
口①⑤口 |②---③-|
⑧⑥口③ |④-⑤-⑥-|
口口⑦口 |⑦---⑧-|
5
口口口口 |①-----|
口①口④ |②-----|
口口口口 |③-----|
口②⑤③ |④---⑤-|
6
口⑤口口 |①---②-|
④口③⑥ |③---④-|
口②⑦① |⑤---⑥-|
口口口口 |⑦---⑧-|

口⑧口
口口口口
口口口口
口口口口
7
口口②口 |----①-|
②②口口 |------|
口⑤口④ |②---③-|
①①③口 |④---⑤-|
8
②口④口 |①-----|
口⑤①口 |②---③-|
③口⑥⑧ |④-⑤-⑥-|
口⑦口口 |⑦---⑧-|
9
口口口口 |①-----|
④口①口 |②-----|
口口口口 |③-----|
③⑤②口 |④---⑤-|
10
②⑤⑤② |①-----|
⑤②②⑤ |②---③-|
①④口口 |④-----|
口⑥③口 |⑤---⑥-|
11
③口口② |①-----|
口口口口 |②-----|
④口①④ |③-----|
口口口口 |④---⑤-|

口口口口
口口口口
口口⑤口
口口口口
12
口口口② |①-----|
③①⑤④ |②---③-|
⑧口⑦⑥ |④-⑤-⑥-|
口口口口 |⑦---⑧-|
13
口口口口 |①-----|
口①口④ |②-----|
口口口口 |③-----|
口②⑤③ |④---⑤-|
14
口⑤口口 |①---②-|
④口③⑥ |③---④-|
口②⑦① |⑤---⑥-|
口口口口 |⑦---⑧-|

口⑧口
口口口口
口口口口
口口口口
15
口口②口 |----①-|
②②口口 |------|
口⑤口④ |②---③-|
①①③口 |④---⑤-|
16
②口口口 |①-----|
④⑤①③ |②---③-|
⑥⑦口⑧ |④-⑤-⑥-|
口口口口 |⑦---⑧-|
17
口口口口 |①-----|
④口①口 |②-----|
口口口口 |③-----|
③⑤②口 |④---⑤-|
18
②⑤⑤② |①-----|
⑤②②⑤ |②---③-|
①④口口 |④-----|
口⑥③口 |⑤---⑥-|
19
口口口② |①-----|
④④口口 |②-----|
③口①口 |③-----|
口口口口 |④-----|
20
①①①⑨ |①---②-|
⑦口⑥口 |③---④-|
④⑧③⑤ |⑤-⑥-⑦-|
口②口口 |⑧---⑨-|
21
②③①口 |①---②-|
⑦口口⑤ |③---④-|
口⑥④口 |⑤---⑥-|
口口口口 |⑦-----|
22
口口口④ |①---②-|
口口⑤⑥ |③---④-|
口口⑦⑧ |⑤---⑥-|
①③②口 |⑦---⑧-|
23
②④②④ |①-----|
口口∨口 |②-----|
口口口口 |③-----|
口③①③ |④---⑤-|

口口口口
口口口口
口口⑤口
口口②口
24
⑨口口口 |①---②-|
口⑥①⑦ |③---④-|
⑤③⑧④ |⑤-⑥-⑦-|
口口②口 |⑧---⑨-|
25
口①③② |①---②-|
⑤口口⑦ |③---④-|
口④⑥口 |⑤---⑥-|
口口口口 |⑦-----|
26
④口口口 |①---②-|
⑥⑤口口 |③---④-|
⑧⑦口口 |⑤---⑥-|
口②③① |⑦---⑧-|
27
口②口② |①-----|
口∨口∨ |②-----|
口口口口 |③-----|
③①③④ |④---⑤-|

口口口口
口口口口
口口口口
口②口⑤
28
口口②口 |①-----|
①<④⑥ |②---③-|
口③①口 |④-----|
口口⑤口 |⑤---⑥-|

口口口口
⑤口口口
口口口口
口口口口
29
口口②口 |①-----|
口口③口 |②-----|
①<①⑤ |③-----|
③<④口 |④---⑤-|

口口口口
口口口口
②口口口
④口口口
30
口②口③ |①-----|
①<④⑥ |②---③-|
④<①口 |④-----|
口口⑤口 |⑤---⑥-|

口口口口
②口口口
⑤口口口
口口口口
31
②口①④ |①-----|
口口口口 |②-----|
口口口口 |③-----|
①<口③ |④-----|

口口口口
口口口口
口口口口
③口口口
32
口口②口 |①-----|
①<④⑥ |②---③-|
口③①口 |④-----|
口口⑤口 |⑤---⑥-|

口口口口
⑤口口口
口口口口
口口口口
33
口口②口 |①-----|
口口③口 |②-----|
①<①⑤ |③-----|
③<④口 |④---⑤-|

口口口口
口口口口
②口口口
④口口口
34
口②④口 |①-----|
①<⑥③ |②---③-|
④<口口 |④-----|
口口⑤① |⑤---⑥-|

口口口口
②口口口
⑤口口口
口口口口
35
②口④① |①-----|
口口口口 |②-----|
口⑤口口 |③-----|
①<口③ |④---⑤-|

口口口口
口口口口
口口口口
③口口口
36
口③口④ |①-----|
口①①口 |②-----|
口口⑤口 |③-----|
②②< |④---⑤-|

口口口口
口口口口
口口口口
口③③口
37
④口③口 |①-----|
口口①口 |②-----|
②<口口 |③-----|
②<口口 |④---⑤-|

口口口口
口口口口
③⑤口口
③口口口
38
口③口② |①-----|
口①口口 |②-----|
④口>② |③-----|
口口>② |④-----|

口口口口
口口口口
口口口③
口口口③
39
③口④③ |①-----|
口口∨口 |②-----|
口⑤①口 |③-----|
口②②口 |④---⑤-|

口口口口
口口口口
口口②口
口口口口
40
口③口④ |①-----|
口①①口 |②-----|
口口⑤口 |③-----|
②②< |④---⑤-|

口口口口
口口口口
口口口口
口③③口
41
④口口口 |①-----|
口口①口 |②-----|
②<口口 |③-----|
②<③口 |④---⑤-|

口口口口
口口口口
③口口口
③⑤口口
42
口②口口 |①-----|
⑤⑤< |②---③-|
口口①③ |④-----|
口口④口 |⑤-----|
43
②口口口 |①-----|
口①①③ |②-----|
口①①③ |③-----|
∧④④口 |④-----|
44
①①①口 |①-----|
口①①口 |------|
口口口口 |------|
口口口口 |------|
45
口口口∨ |------|
口口口口 |------|
口口口口 |------|
口口口① |①---②-|

口口口口
口口口口
口口口口
口口口②
46
口③口 |①-----|
口②③③ |②-----|
①②②④ |③-----|
①①口口 |④---⑤-|

⑤口④口
口口口口
口口口口
口口口口
47
口⑦口口 |①---②-|
①②口⑥ |③---④-|
口③④口 |⑤-----|
口口⑤< |⑥---⑦-|

口口口口
口口口口
口口口口
口口⑥口
48
②口口口 |①-----|
口>①口 |②---③-|
口口③口 |④-----|
口口口口 |⑤---⑥-|

口口口口
口④②口
口∧口⑤
口⑥口口

口口口口
口⑤口口
口口口口
口口口口
49
∨④②② |①-----|
口口口口 |②-----|
①口⑤口 |③-----|
口口③③ |④---⑤-|

口口口口
口口口口
③口口口
口口口口
50
②口口③ |①-----|
②口>③ |②-----|
口∨口口 |③-----|
口①④口 |----④-|

口口口口
口口口④
口口口口
口③口口
51
②口口口 |①-----|
口∨口口 |②---③-|
口①③口 |④-----|
④口口 |⑤---⑥-|

口口口口
⑥口口⑤
口②口口
口⑤口口
52
口①口口 |①-----|
口∧④④ |②-----|
口口③③ |③-----|
口口口② |④-----|
53
①①①① |①---②-|
③②口口 |③---④-|
⑤④口口 |⑤---⑥-|
⑦⑥口口 |⑦-----|
54
口③口< |①-----|
③③②口 |②-----|
④②②① |③-----|
口口①① |④---⑤-|

口④口⑤
口口口口
口口口口
口口口口
55
口口⑦口 |①---②-|
⑥口②① |③---④-|
口④③口 |⑤-----|
⑤口口 |⑥---⑦-|

口口口口
口口口口
口口口口
口⑥口口
56
口口口② |①-----|
口①<口 |②---③-|
口③口口 |④-----|
口口口口 |⑤---⑥-|

口口口口
口②④口
⑤口∧口
口口⑥口

口口口口
口口⑤口
口口口口
口口口口
57
②②④∨ |①-----|
口口口口 |②-----|
口⑤口① |③-----|
③③口口 |④---⑤-|

口口口口
口口口口
口口口③
口口口口
58
③口口② |①-----|
③<口② |②-----|
口口∨口 |③-----|
口④①口 |----④-|

口口口口
④口口口
口口口口
口口③口
59
口口口② |①-----|
口口∨口 |②---③-|
口③①口 |④-----|
口口④< |⑤---⑥-|

口口口口
⑤口口⑥
口口②口
口口⑤口
60
口口①口 |①-----|
④④∧口 |②-----|
③③口口 |③-----|
②口口口 |④-----|
61
①①①① |①---②-|
口口②③ |③---④-|
口口④⑤ |⑤---⑥-|
口口⑥⑦ |⑦-----|
62
①④①口 |①---②-|
口口口口 |③---④-|
②④口口 |----⑤-|
③口⑥⑤ |⑥-----|
63
④口④口 |①---②-|
口①口① |③---④-|
②口口口 |----⑤-|
③口⑥⑤ |⑥-----|
64
口④口① |①---②-|
口口口口 |③---④-|
②①口④ |----⑤-|
③口⑥⑤ |⑥-----|
65
②口①③ |①---②-|
①口②∧ |----③-|
口口口③ |----④-|
口④⑤∧ |⑤-----|

口口口⑤
口口口口
口口口⑤
口口口口
66
①④①口 |①---②-|
口口∧口 |③---④-|
②④口口 |----⑤-|
③∧⑥⑤ |⑥-----|

口口③口
口口口口
口⑥口口
口口口口
67
④口④口 |①---②-|
∧①口① |③---④-|
②口口∧ |----⑤-|
③口⑥⑤ |⑥-----|

⑥口口口
口口口③
口口口口
口口口口
68
口④口① |①---②-|
口∧口∧ |③---④-|
②①口④ |----⑤-|
③口⑥⑤ |⑥-----|

口⑥口③
口口口口
口口口口
口口口口
69
②口①∨ |①---②-|
①∨②口 |----③-|
口口④③ |----④-|
口③⑤口 |⑤-----|

口口口口
口口口口
口口口⑤
口⑤口口
70
口①②口 |①-----|
①⑤④② |②---③-|
口③⑥口 |④-⑤-⑥-|
口⑦口口 |⑦---⑧-|

口口口口
⑧口口口
口口口口
口口口口
71
④①口口 |①-----|
口口⑤口 |②-----|
口口口② |③-----|
③口口口 |④---⑤-|
72
⑧①③口 |①---②-|
①②口③ |③---④-|
⑦④⑥⑤ |⑤---⑥-|
口⑦⑤⑧ |⑦---⑧-|
73
口②口① |----①-|
②④⑤∨ |------|
口③∨② |②---③-|
①口②口 |④---⑤-|

口口口口
口口口口
口口口④
口口④口
74
①口①② |①-----|
口口口∨ |②---③-|
∧口③口 |④-⑤-⑥-|
口④口④ |⑦---⑧-|

②口口口
口⑥⑦口
⑤口口口
⑧口口⑦
75
口∨口② |①-----|
④口∨⑤ |②-----|
口①口口 |③-----|
口口③口 |④---⑤-|

口口口口
口口口口
口②口口
口口④口
76
口②④② |①-----|
⑥③⑥口 |②---③-|
口②①② |④---⑤-|
⑥口⑥⑤ |⑥---⑦-|

口口口口
口口口口
口口⑦口
口口口口
77
③口③∨ |①-----|
口③口① |②-----|
②口口口 |③-----|
口②口口 |------|

口口口口
口口口③
口口口口
口口口口
最終更新:2022年04月07日 13:51