アットウィキロゴ
X-ray binary
BEMANI Sound Team "Trance Liquid"

ADVANCED

Level: 9.5
BPM: 150
Notes(hold): 754(69)

1
□□□□ |----|
□□□□ |----|
□□□□ |----|
□□□□ |----|
2
□□□□ |①---|
①□□< |----|
□□□□ |②---|
□□□□ |----|

□□□□
②□□□
□□②
□□□□
3
□∨□□ |①---|
□□□□ |----|
□□□① |②---|
□①□□ |----|

□□②□
□□□□
□□□□
□②∧□
4
□□①□ |①---|
①□□< |--②-|
□□□□ |③-④-|
□□□□ |⑤-⑥-|

⑤□□□
②□④□
⑥③□□
□□□②
5
⑥□□□ |--①②|
⑤□□① |③---|
④□②□ |--④-|
□③□□ |⑤-⑥-|
6
□□①① |①-②-|
□□③□ |③-④-|
□□□□ |⑤-⑥-|
②□④□ |⑦-⑧-|

□□⑧⑧
⑦□□□
□⑤⑥⑥
□□□□
7
□□□□ |①-②-|
⑤□⑧□ |③-④-|
③□⑦④ |⑤-⑥-|
①□⑥② |⑦-⑧-|
8
①①□□ |①-②-|
⑥④□□ |③-④-|
②⑦□□ |⑤-⑥-|
□③⑧⑤ |⑦-⑧-|
9
④④□□ |①-②-|
⑥□③⑤ |③-④-|
□⑦□② |⑤-⑥-|
①□⑧□ |⑦-⑧-|
10
③□□② |①-②-|
⑤□□④ |③-④-|
⑦□□⑥ |⑤-⑥-|
①①□⑧ |⑦-⑧-|
11
□□□④ |①---|
□□□③ |②---|
□□②□ |③---|
①□<□ |④---|
12
□□□□ |①---|
①①□□ |②---|
□□□□ |③④⑤⑥|
①□□② |⑦⑧⑨⑩|

⑥⑤④③
⑩⑨⑧⑦
□□□□
□□□□
13
□□□⑬ |①②③④|
⑫⑪⑩⑨ |⑤⑥⑦⑧|
④③②① |⑨⑩⑪⑫|
⑧⑦⑥⑤ |⑬---|
14
③④⑤⑥ |①---|
⑦⑧⑨⑩ |②---|
①□□□ |③④⑤⑥|
□□□② |⑦⑧⑨⑩|
15
⑨⑪⑫□ |①②③④|
□□⑩□ |⑤⑥⑦⑧|
①②③④ |⑨-⑩-|
⑤⑥⑦⑧ |⑪-⑫-|
16
⑦⑥⑤④ |①②--|
⑪⑩⑨⑧ |③---|
①②□□ |④⑤⑥⑦|
□□③□ |⑧⑨⑩⑪|
17
□□□□ |①②③④|
□□□□ |⑤⑥⑦⑧|
④③②① |⑨⑩⑪⑫|
⑧⑦⑥⑤ |⑬--⑭|

□□□⑬
⑫⑪⑩⑨
⑭□□□
□□□□
18
□□□□ |①---|
④□□③ |②---|
□①⑤□ |③-④-|
⑥□□② |⑤-⑥-|
19
□>□① |①---|
□②□ |②---|
□③□< |③---|
④□<□ |④---|

□□□②
□□③□
□④□□
□□□□
20
□□□∨ |①-②-|
⑤□<□ |③-④-|
□□□① |⑤-⑥-|
①□□□ |⑦-⑧-|

□□⑥□
⑦③□⑦
②□⑧③
□④□□
21
□>□① |①-②-|
□□□□ |③-④-|
□□□□ |⑤-⑥-|
□□□□ |⑦-⑧-|

⑤□⑥③
□⑤④⑥
③⑦□⑧
⑦②⑧□
22
□①□□ |①--②|
□□□③ |--③-|
②□①□ |④⑤-⑥|
□□□□ |-⑦⑧⑨|

⑥□□④
⑨□⑤□
□□⑧□
□⑦□□
23
□⑤①④ |①--②|
⑤③④□ |--③-|
⑦□⑥② |④-⑤-|
□⑦□⑥ |⑥-⑦-|
24
□□①□ |①--②|
⑤②□③ |--③-|
□①□□ |④--⑤|
□④□ |⑥-⑦-|

□⑦□□
□□□□
□□□□
□□⑥□
25
□>□⑤ |①--②|
⑥□<② |A-③-|
□①□< |④--⑤|
④□<③ |B-⑥-|

□□□⑥
□□□□
□A□□
B□□□
26
□□∨□ |①--②|
①②□□ |A-③-|
□>□⑦ |④⑤-⑥|
③□①□ |⑦-⑧-|

⑥□□□
□⑧□④
□□⑤□
□□A□
27
□③□< |①-②-|
□□□□ |③-④-|
②□□① |⑤-⑥-|
□>□① |⑦-⑧-|

□⑤□□
□□□□
□⑥④□
□□□③

□⑤□
□□□□
□□□□
□□□□

□□⑦□
⑧□□⑦
□□□□
□□□□
28
□□□□ |①-②-|
□□□□ |③-④-|
□⑤□ |⑤-⑥-|
□□□□ |⑦-⑧-|

⑥□□①
□②□⑧
⑦□⑦①
③□□④
29
□□□□ |①-②-|
□□□□ |③-④-|
□□□□ |⑤-⑥-|
□>□③ |⑦-⑧-|

⑤□□□
□②□□
⑥□□<
④□①⑤

□□□⑧
□□□□
⑧□□□
□□⑦□
30
□□□□ |①-②-|
□①□ |③-④-|
□⑤□< |⑤-⑥-|
□□□□ |⑦-⑧-|

□②□⑥
④□③⑧
□⑦□□
③□⑦□
31
□①□□ |①-②-|
□④□□ |③-④-|
②□□□ |⑤--⑥|
□>□③ |--⑦-|

□□□□
□□□□
□>□⑥
⑤□<⑤

□⑦□□
□□□□
□□□⑦
⑥□□□
32
□□□□ |①-②-|
□□□② |③-④-|
①□<□ |⑤-⑥-|
□□□□ |⑦-⑧-|

□□□④
□□③□
③□□□
□□□□

□□□□
□⑥□□
□⑤□
□□□□

⑦□□□
□□□□
□□⑦□
□⑧□□
33
⑤□<□ |①-②-|
□③□ |③-④-|
□>□⑥ |⑤--⑥|
□□□□ |--⑦-|

⑥⑦□□
□□⑤□
①□□⑦
④□□②
34
□□□□ |①-②-|
①□<□ |③-④-|
□⑤□< |⑤-⑥-|
□□□□ |⑦-⑧⑨|

④□□⑥
③⑧□②
□⑦⑨⑦
□□③□
35
□②④□ |①--②|
③□□□ |③--④|
□□□□ |⑤-⑥-|
□□□① |⑦⑧⑨⑩|

□□□□
□⑥□⑤
⑧□□⑦
⑩□□⑨
36
□④□① |①-②-|
④□①□ |③-④-|
□②□□ |⑤-⑥-|
□③□□ |⑦-⑧-|

□⑤□
□>□⑤
□□□□
□□□□

⑦□⑦□
□□□⑦
⑥⑧□□
⑧□□□
37
□□□□ |①-②-|
□□□□ |③-④-|
□①□ |⑤-⑥-|
□>□① |⑦-⑧-|

□③□□
□②□□
④□③□
□④□③

□□□□
□□□□
□>□⑤
□⑤□

⑧□□□
⑥⑧□□
□⑦□⑦
□□⑦□
38
□>□① |①-②-|
□①∨ |③-④⑤|
□□□□ |⑥-⑦-|
□□□⑥ |⑧-⑨-|

□③□③
⑨⑦③□
②⑨□□
⑧④⑤⑧
39
②□□□ |①-②-|
□>□① |③-④⑤|
□①□ |⑥-⑦-|
□□□□ |⑧-⑨-|

□□□□
□□□③
□□③□
□□□□

□□□□
□□□∨
□□□□
□□□⑥

⑨③□□
□⑧□□
⑨□□□
⑦④⑤⑧
40
□>□① |①-②-|
□□□□ |③-④-|
□>□① |⑤-⑥-|
□②□□ |⑦-⑧-|

□⑤③
③□□□
□⑤③
□□□□

□④⑦□
□⑥□□
⑧④⑦□
⑦⑧□□
41
④③□□ |①-②-|
②④□□ |③-④-|
□>□① |⑤-⑥-|
□①□ |⑦-⑧⑨|

□>□⑤
□⑤□
□□□③
□□③□

□□□⑦
□□⑦□
□⑦□□
⑥⑧⑨□
42
②□□□ |①-②-|
□□□∨ |③-④-|
□□□□ |⑤-⑥-|
□□□① |⑦-⑧-|

□□□□
□⑤□
□>□⑤
□□□□

⑧③□□
⑧④⑦□
④⑦□⑦
□⑥□③
43
□>□① |①-②-|
□>□① |③-④⑤|
□⑥□ |⑥-⑦-|
□□□□ |⑧⑨⑩⑪|

⑦□④③
□③⑤③
⑩□⑧⑪
②⑧⑨□
44
□①□□ |①---|
□①□□ |----|
□□□□ |----|
□□□□ |----|
45
□□① |----|
□□□□ |----|
□□□□ |----|
①□□< |①---|
46
□□□① |①---|
□①①□ |②---|
③①①□ |③---|
①②③④ |④---|
47
□③□□ |①---|
□□①□ |②---|
□□□□ |③---|
①②③④ |④---|
48
□⑥□① |①---|
⑤⑦□□ |②-③-|
□④③□ |④-⑤-|
①②④⑥ |⑥-⑦-|
49
⑦□□② |①-②-|
⑥□□□ |③---|
⑤□③□ |④-⑤-|
①③④⑥ |⑥-⑦-|
50
□⑦①① |①---|
□□□② |②-③-|
□⑤③□ |④-⑤-|
①②④⑥ |⑥-⑦-|
51
□□□□ |①---|
⑥□□□ |②---|
□⑤④□ |③-④-|
①②③⑤ |⑤-⑥-|
52
□⑥④① |①-②-|
⑦③②□ |③-④-|
□⑧□□ |⑤-⑥-|
①③⑤⑦ |⑦-⑧-|
53
□□③④ |①-②-|
□□□② |③-④-|
□□①□ |⑤-⑥-|
①③□□ |⑦-⑧-|

⑥□□□
□⑦□□
□□⑧□
□□⑤⑦
54
□□□④ |①-②-|
⑥□③□ |③-④-|
□①⑦② |⑤---|
①③⑤⑥ |⑥-⑦-|
55
⑥□□④ |①-②-|
□③□□ |③-④-|
□①□② |⑤---|
①③⑤⑥ |⑥---|
56
□□④③ |①-②-|
⑤□①① |③-④-|
□⑧②⑥ |⑤-⑥-|
①③⑤⑦ |⑦-⑧-|
57
①□∨① |①---|
②□□< |②---|
④□□< |③---|
□□③□ |④---|

□□□□
③□□□
□□□□
□□④□
58
④③②① |①②③④|
⑫⑥⑬⑤ |-⑤⑥⑦|
①⑭⑦□ |⑧⑨⑩⑪|
⑧⑨⑩⑪ |-⑫⑬⑭|
59
④③②① |①②③④|
□□□□ |-⑤⑥-|
□□□⑤ |⑦-⑧⑨|
□□⑥□ |--⑩-|

⑩□□□
⑦⑦□⑧
□□⑨□
□□□□
60
⑫⑥⑦⑬ |①②③④|
□⑭⑤□ |-⑤⑥⑦|
⑧⑨⑩⑪ |⑧⑨⑩⑪|
④③②① |-⑫⑬⑭|
61
□⑤⑤□ |①②③④|
□□□□ |--⑤-|
□□□□ |⑥⑦-⑧|
④③②① |--⑨-|

□□□⑨
⑥□□□
□⑦□□
□□□⑧
62
⑦⑨⑩⑦ |①②③④|
⑧⑤⑤⑪ |--⑤-|
①⑥⑥④ |⑥-⑦-|
□②③□ |⑧⑨⑩⑪|
63
□□□□ |①②③④|
□⑤⑤□ |--⑤-|
□□□□ |⑥-⑦-|
①②③④ |⑧⑨⑩⑪|

□⑦⑦□
□□□□
□⑥⑥□
⑧⑨⑩⑪
64
②⑥⑧④ |①②-③|
⑩⑨⑨⑩ |④-⑤⑥|
①⑤⑦③ |-⑦⑧-|
□□□□ |⑨-⑩-|
65
②□□④ |①②-③|
□⑥⑧□ |④-⑤⑥|
①⑨⑨③ |-⑦⑧-|
□⑤⑦□ |⑨---|
66
④③②① |①②③④|
⑫⑥⑬⑤ |-⑤⑥⑦|
□⑭⑦□ |⑧⑨⑩⑪|
⑧⑨⑩⑪ |-⑫⑬⑭|
67
④③②① |①②③④|
□□□□ |-⑤⑥-|
□□□⑤ |⑦-⑧⑨|
□□⑥□ |--⑩-|

⑩□□□
⑦⑦□⑧
□□⑨□
□□□□
68
⑫⑥⑦⑬ |①②③④|
□⑭⑤□ |-⑤⑥⑦|
⑧⑨⑩⑪ |⑧⑨⑩⑪|
④③②① |-⑫⑬⑭|
69
□⑤⑤□ |①②③④|
□□□□ |--⑤-|
□□□□ |⑥⑦-⑧|
④③②① |--⑨-|

□□□⑨
⑥□□□
□⑦□□
□□□⑧
70
□③④□ |①②③④|
□①②□ |--⑤-|
⑤□□□ |⑥-⑦-|
□□□□ |⑧⑨⑩⑪|

□□□□
⑧⑨⑩⑪
□□□□
□⑦⑥□
71
⑤□□③ |①②-③|
□⑧⑨□ |--④-|
⑦①②⑩ |⑤-⑥-|
④□□⑥ |⑦⑧⑨⑩|
72
□②④□ |①②-③|
⑥⑨⑩⑧ |④-⑤⑥|
□①③□ |-⑦⑧-|
⑤⑪⑫⑦ |⑨⑩⑪⑫|
73
③□②② |①②-③|
□□□⑥ |④-⑤⑥|
①□④④ |--⑦-|
⑤□□⑥ |⑧⑨⑩⑪|

□□⑧□
□⑦⑦□
⑨⑪⑪□
□□⑩□
74
□□□□ |----|
□□□□ |----|
□□□□ |----|
□□□□ |----|
最終更新:2022年04月09日 18:41