アットウィキロゴ
X-ray binary
BEMANI Sound Team "Trance Liquid"

EXTREME

Level: 10.4
BPM: 150
Notes(hold): 925(75)

1
口口口口 |----|
口口口口 |----|
口口口口 |----|
口口口口 |----|
2
①③口口 |①---|
口口口口 |----|
口>口② |②---|
口>口① |③---|

口口口口
口口口口
口口口口
口口口②
3
口>口② |①---|
③>口① |----|
口口口① |②---|
①口口口 |③---|

口口口口
口口口②
口口口口
口口口口
4
⑤口口① |①---|
口口口④ |--②-|
③①口< |③-④-|
口口②⑥ |⑤-⑥-|

口口口口
口口口口
口②口口
口口口口
5
⑧口口② |①-②③|
口口③⑦ |④---|
⑥④口口 |⑤-⑥-|
口①⑤口 |⑦-⑧-|
6
口③②① |①②③-|
④⑤⑥口 |④⑤⑥-|
口⑨⑧⑦ |⑦⑧⑨-|
⑩⑪⑫口 |⑩⑪⑫-|
7
①口⑫口 |①②③-|
②⑦⑪⑥ |④⑤⑥-|
③⑧⑩⑤ |⑦⑧⑨-|
口⑨口④ |⑩⑪⑫-|
8
⑩⑫口⑪ |①②③-|
⑧口⑨⑦ |④⑤⑥-|
④⑥口⑤ |⑦⑧⑨-|
②口③① |⑩⑪⑫-|
9
口⑪⑫口 |①②③-|
⑩⑤⑥⑦ |④⑤⑥-|
④⑨⑧① |⑦⑧⑨-|
口③②口 |⑩⑪⑫-|
10
①口口④ |①②③-|
⑦②⑤⑩ |④⑤⑥-|
口⑧⑪口 |⑦⑧⑨-|
⑫⑥③⑨ |⑩⑪⑫-|
11
④②②口 |①-②-|
口③③口 |③-④-|
口口① |⑤-⑥⑦|
口口口口 |⑧⑨⑩⑪|

口口口口
⑥口口⑦
⑤⑧⑨口
口⑩⑪口
12
口①①口 |①---|
口口口口 |②---|
口口口① |③④⑤⑥|
②口口口 |⑦⑧⑨⑩|

⑩口口③
口⑨④口
⑥⑤⑧⑦
口口口口
13
⑫⑦②口 |①②③④|
⑧⑪⑩① |⑤⑥⑦⑧|
口⑬⑬⑨ |⑨⑩⑪⑫|
④③⑥⑤ |⑬---|
14
③口口⑩ |①---|
口④⑨口 |②---|
⑦⑧⑤⑥ |③④⑤⑥|
②①①口 |⑦⑧⑨⑩|
15
⑨②⑦⑫ |①②③④|
①口⑪⑧ |⑤⑥⑦⑧|
⑨口口⑩ |⑨-⑩-|
⑤⑥③④ |⑪-⑫-|
16
口⑩⑨⑧ |①②--|
⑪口口④ |③---|
⑦⑥⑤口 |④⑤⑥⑦|
③口①② |⑧⑨⑩⑪|
17
④⑪⑩⑭ |①②③④|
⑫③②⑨ |⑤⑥⑦⑧|
⑧⑬⑬① |⑨⑩⑪⑫|
口⑦⑥⑤ |⑬--⑭|
18
⑤口口口 |①②--|
口⑥①口 |③---|
口口⑦口 |④-⑤-|
③④口口 |⑥-⑦-|
19
口>口⑦ |①-②-|
口>口① |③-④-|
口>口③ |⑤-⑥-|
口>口⑤ |⑦-⑧-|

口口口⑧
口口口②
口口口④
口口口⑥
20
口①口口 |①--②|
口④④口 |③-④-|
口①口 |⑤⑥-⑦|
②口口口 |⑧⑨⑩⑪|

⑦⑪口口
⑤>口⑤
口⑥③⑩
口⑨口口

口口口口
口口口⑧
口口口口
口口口口
21
口口口口 |①--②|
口④口口 |③-④-|
口①口 |⑤⑥⑦⑧|
②口口④ |⑨⑩⑪⑫|

⑧口⑦口
⑤口⑤口
⑫⑥③⑪
口⑩⑨口
22
口>口① |①--②|
口④口口 |③-④-|
口口口口 |⑤⑥-⑦|
②口口口 |-⑧⑨⑩|

⑦⑩口③
⑤口口口
口⑥口⑨
口⑧口口
23
⑦⑪⑥口 |①--②|
④③④口 |--③-|
口⑤①⑩ |④⑤⑥⑦|
②⑨⑧③ |⑧⑨⑩⑪|
24
⑦>口① |①--②|
⑤④④口 |③-④-|
口⑥口口 |⑤⑥-⑦|
②>口⑤ |⑧⑨⑩⑪|

口⑪口③
口口口口
口口口⑩
口⑨口⑧
25
口口④口 |①--②|
口④口口 |③-④-|
口①口 |⑤⑥-⑦|
②口口口 |⑧⑨⑩⑪|

⑦口口口
⑤口口口
⑪⑥③⑩
口⑨⑧⑤
26
口口口口 |①--②|
口>口① |③-④-|
口口口口 |⑤⑥-⑦|
②口口口 |⑧⑨⑩⑪|

⑦⑪⑧口
⑤④口③
口⑥口⑩
口⑨口口
27
口口口口 |①--②|
口口④口 |③-④-|
口口口口 |⑤-⑥⑦|
②口①③ |⑧⑨⑩⑪|

口口口⑥
⑦口口⑩
⑨⑤口口
口⑪⑧口
28
口①①口 |①-②③|
口⑤口口 |④-⑤⑥|
口口③② |⑦-⑧⑨|
④口⑥⑤ |⑩-⑪⑫|

口口⑫⑪
口口⑨⑧
⑩⑦口口
口口口口
29
口⑦⑫⑪ |①-②③|
①⑪⑨⑧ |④-⑤⑥|
⑩⑧③② |⑦-⑧⑨|
口④⑥⑤ |⑩-⑪⑫|
30
口⑦⑫⑪ |①-②③|
口口⑨⑧ |④-⑤⑥|
⑩⑤③② |⑦-⑧⑨|
④①⑥⑤ |⑩-⑪⑫|
31
口口口口 |①-②③|
①口口口 |④-⑤⑥|
口口③② |⑦-⑧⑨|
口④⑥⑤ |⑩-⑪⑫|

⑩⑨⑫⑪
⑪口⑨⑧
口⑦口口
口口口口
32
口口⑫⑪ |①-②③|
口⑤⑨⑧ |④-⑤⑥|
⑩⑦③② |⑦-⑧⑨|
④①⑥⑤ |⑩-⑪⑫|
33
口口口口 |①-②③|
①口口口 |④-⑤⑥|
口口③② |⑦-⑧⑨|
口④⑥⑤ |⑩-⑪⑫|

⑩⑨⑫⑪
⑪口⑨⑧
口⑦口口
口口口口
34
口口⑫⑪ |①-②③|
口⑤⑨⑧ |④-⑤⑥|
⑩⑦③② |⑦-⑧⑨|
④①⑥⑤ |⑩-⑪⑫|
35
口口口口 |①--②|
①②④口 |③--④|
口③口口 |⑤-⑥-|
口口口口 |⑦⑧⑨⑩|

口口口口
⑧口口⑦
⑩口⑤⑨
口⑥口口
36
口口①口 |①--②|
口口④口 |③-④-|
口①口< |⑤⑥-⑦|
④口口② |⑧⑨⑩⑪|

⑤口<⑦
口口口口
⑩③⑥口
口口⑨口

⑧口⑪口
口口口口
口口口口
口口口口
37
口口口口 |①--②|
口口④口 |③-④-|
口①口< |⑤⑥-⑦|
④口口② |⑧⑨⑩⑪|

口口口⑦
⑤口<⑤
⑩③⑥⑪
口⑧⑨口

口口口口
⑧口口口
口口口口
口口口口
38
①口<口 |①--②|
⑤④④口 |③-④⑤|
口口口口 |⑥⑦-⑧|
口口口② |⑨⑩⑪⑫|

③⑥口<
口口口⑥
口口⑦口
口口口口

口⑨⑫⑧
口口口口
⑪口口口
口口⑩口
39
口⑥口< |①--②|
⑤④④⑥ |③-④⑤|
口①口< |⑥⑦-⑧|
口口口② |⑨-⑩⑪|

口⑨⑪⑧
口口口口
⑩③⑦口
口口⑨口
40
①口<⑦ |①--②|
口④④⑤ |③-④-|
口口⑥口 |⑤⑥-⑦|
⑤口<② |⑧⑨⑩⑪|

③口⑪口
口口口口
⑩口口口
⑧口⑨口
41
口口口口 |①--②|
口④④⑤ |③-④-|
口①口< |⑤⑥-⑦|
⑤口<② |⑧⑨⑩⑪|

口⑪口⑦
口口口口
⑩③⑥⑪
⑧⑧⑨口
42
口口口口 |①--②|
①口<口 |③-④-|
口口口口 |⑤⑥-⑦|
口口口② |⑧⑨⑩⑪|

④口口⑦
③口④⑤
口口⑥口
口⑤口<

口⑩⑪口
口口口口
口口口口
口⑧⑨口
43
口口口口 |①--②|
④口④口 |③-④⑤|
⑤①口< |⑥⑦⑧⑨|
口口口② |⑩⑪⑫⑬|

⑩口口⑪
口⑧口⑥
口③⑦⑨
⑥⑫⑬口
44
口①①口 |①---|
口口口口 |----|
口口口口 |----|
口口口口 |----|
45
⑤口口① |----|
⑥口口② |----|
⑦口口③ |----|
⑧口口④ |①②③④⑤⑥⑦⑧|
46
口口口口 |①---|
口①①口 |②---|
口①①口 |③---|
口②口口 |④---|

口口③口
口口口③
口④口口
口口③④
47
④①口③ |①---|
①口③口 |②---|
口口口口 |③---|
①②③④ |④---|
48
口口口口 |①---|
口①口口 |②-③-|
口③①口 |④-⑤-|
①②口口 |⑥-⑦-|

⑤口⑦口
口⑥④口
口口口④
口口④⑥
49
口口口② |①-②③|
口口③口 |④---|
口④口口 |⑤-⑥⑦|
①④口口 |⑧⑨⑩⑪|

口口⑥口
⑦口口⑧
⑨口口⑩
⑪口⑤口
50
口口⑦② |①---|
③①①⑤ |②-③-|
口①①口 |④-⑤-|
口②④⑥ |⑥-⑦-|
51
口⑥口口 |①---|
⑤口口口 |②---|
口④①口 |③-④-|
①②③⑤ |⑤-⑥-|
52
口⑧口① |①-②-|
⑦②④口 |③-④-|
口⑥口③ |⑤-⑥-|
①③⑤⑦ |⑦-⑧-|
53
口口④① |①-②-|
口③口口 |③-④-|
口口口② |⑤-⑥-|
①③口口 |⑦⑧⑨⑩|

⑥口口口
口口口口
⑦口口⑧
⑨口⑤⑩
54
口④③口 |①-②-|
口①①② |③-④-|
口①①口 |⑤---|
口③口口 |⑥-⑦-|

⑥口口口
口⑥口口
口口口⑦
口口⑤⑥
55
⑥口④① |①-②-|
③⑥①⑦ |③-④-|
口口②口 |⑤---|
①③⑤⑥ |⑥⑦--|
56
口口口① |①-②-|
④口①口 |③-④-|
口口③② |⑤-⑥-|
①③口口 |⑦⑧⑨⑩⑪⑫|

口⑦⑧口
口⑨⑩⑥
⑤⑪⑫口
口口⑤⑦
57
①口V① |①---|
口口口口 |②---|
②口口< |③---|
口口③口 |④---|

口口口口
口口口口
③口口口
④口④<
58
口①③⑥ |①②③④|
②>口④ |⑤⑥⑦⑧|
口⑦口口 |⑨⑩⑪⑫|
①口口⑧ |⑬⑭⑮⑯|

⑨口口口
口⑩⑪⑤
口>口⑫
口口口口

口口⑮口
⑯口口口
口口口⑬
⑭口口口
59
④口<⑥ |①②③④|
口口⑦① |⑤⑥⑦-|
⑧③②口 |⑧-⑨⑩|
⑧口口口 |--⑪-|

⑤⑪⑪口
口⑨口口
口口口⑩
口口口⑩
60
口口口口 |①②③④|
④口<① |⑤⑥⑦⑧|
口口口口 |⑨⑩⑪⑫|
口③②口 |⑬⑭⑮⑯|

⑫口<⑨
⑤口⑦口
⑥⑪⑩口
⑧口口口

⑬口口口
口⑯口口
口口口口
口⑭口⑮
61
口③②口 |①②③④|
⑥口口⑥ |⑤-⑥-|
④口<① |⑦⑧-⑨|
口口口口 |--⑩-|

口口口口
口口口口
⑤⑦口⑨
⑩口⑧口
62
③口口① |①②③④|
口口②口 |⑤-⑥-|
口口口口 |⑦-⑧-|
口口口口 |⑨⑩⑪⑫|

口⑥⑥口
口④口<
⑧口口⑧
口⑦⑦口

口口口口
⑩⑤口⑨
口口口口
⑫口口⑪
63
口口口口 |①②③④|
口③①口 |⑤-⑥-|
口口②口 |⑦-⑧-|
口口口口 |⑨⑩⑪⑫|

⑥⑧⑧⑥
⑫口口⑪
口④口<
⑩⑦⑦⑨

口口口口
口口口口
口⑤口口
口口口口
64
②<>② |①②③④|
口口口口 |⑤⑥⑦⑧|
口①①口 |⑨⑩⑪⑫|
口④④口 |⑬-⑭-|

⑧⑧<
口⑦⑦口
⑤<>⑤
⑩口口⑩

口口口口
⑪<>⑪
口⑬⑬口
口口口口

③⑨⑨③
⑫口口⑫
⑥口口⑥
口口口口

⑭口口⑭
口口口口
口口口口
口口口口
65
口④④口 |①②③④|
⑤⑤< |⑤⑥⑦⑧|
①口口① |⑨⑩⑪⑫|
②②< |⑬⑭⑮⑯|

⑩口口⑩
⑦口口⑦
⑪⑪<
⑧<>⑧

口口口口
口⑥⑥口
口⑫⑫口
⑨③③⑨

口口口口
口口口口
⑬口口⑭
口⑮⑯口
66
口①③⑥ |①②③④|
②>口④ |⑤⑥⑦⑧|
口⑦口口 |⑨⑩⑪⑫|
口口口⑧ |⑬⑭⑮⑯|

⑨口口口
口⑩⑪⑤
口>口⑫
口口口口

口口⑮口
⑯口口口
口口口⑬
⑭口口口
67
④口<⑥ |①②③④|
口口⑦① |⑤⑥⑦-|
⑧③②口 |⑧-⑨⑩|
⑧口口口 |--⑪-|

⑤⑪⑪口
口⑨口口
口口口⑩
口口口⑩
68
口口口口 |①②③④|
④口<① |⑤⑥⑦⑧|
口口口口 |⑨⑩⑪⑫|
口③②口 |⑬⑭⑮⑯|

⑫口<⑨
⑤口⑦口
⑥⑪⑩口
⑧口口口

⑬口口口
口⑯口口
口口口口
口⑭口⑮
69
口③②口 |①②③④|
⑥口口⑥ |⑤-⑥-|
④口<① |⑦⑧-⑨|
口口口口 |--⑩-|

口口口口
口口口口
⑤⑦口⑨
⑩口⑧口
70
①①①① |①②③④|
口②口口 |⑤-⑥-|
口口口口 |⑦-⑧-|
口口口③ |⑨⑩⑪⑫|

口口口口
口>口④
口口口口
口口口口

⑩口⑪⑨
⑥⑫⑥⑤
⑧⑦⑧⑦
口口口口
71
口④口< |①②③④|
③口②口 |⑤-⑥-|
口口口口 |⑦-⑧-|
①①①① |⑨⑩⑪⑫|

口⑤口⑧
口⑪口⑫
⑦⑥⑦⑥
⑨口口⑩
72
①①口口 |①②③④|
①口⑦口 |⑤⑥⑦⑧|
口口④⑨ |⑨-⑩⑪|
口口⑨⑨ |⑫⑬⑭⑮|

口②口
口⑩口<
⑤⑧<<
口口口口

⑫口③⑬
⑭⑪口⑮
⑥⑨口口
口口口口
73
口④口口 |①②③④|
口口口口 |⑤⑥⑦⑧|
①⑦口口 |⑨-⑩-|
①①口口 |⑪⑫⑬⑭|

口口口口
口⑤口
口②口
口⑧口

口口口口
口口⑥口
口口③口
口口⑨口

⑩口⑭⑩
⑪⑭口口
口口⑭⑫
⑬⑭口口
最終更新:2022年04月07日 13:52