アットウィキロゴ
No Rule Adventure
nora2r

EXTREME

Level: 10.3
BPM: 190
Notes(hold): 841(92)

1
口口口口 |----|
口口口口 |----|
口口口口 |----|
口口口口 |----|
2
口①口① |①---|
口②口∧ |②---|
口③口口 |③---|
口④④口 |④---|
3
口口①① |①---|
①口②口 |②---|
∧口③口 |③---|
口④④口 |④---|
4
口①口口 |①---|
①②口口 |②---|
口③口① |③---|
口④④∧ |④---|
5
口口①口 |①---|
口口②口 |②---|
∨口③① |③---|
①口④口 |④---|
6
④口①① |①---|
③口口② |②---|
②口口③ |③---|
①①口④ |④---|
7
口①④口 |①---|
口②③口 |②---|
口③②口 |③---|
口④①口 |④---|
8
②②④① |①---|
③③④① |②---|
①④③③ |③---|
①④②② |④---|
9
口口口① |①---|
口口口② |②---|
口⑥⑥③ |③-④⑤|
⑥④⑤⑥ |⑥---|
10
口①―< |①---|
①―<口 |②-③-|
口口口口 |④-⑤-|
口口口口 |⑥-⑦-|

⑦②⑥④
②口口②
③口口口
口⑤口口
11
口口口口 |①---|
口口口口 |②-③-|
口>―① |④-⑤-|
―①口 |⑥-⑦-|

口④口⑥
⑦口口③
②⑤口②
口口②口
12
口口口口 |①---|
口口口口 |②-③④|
口口①< |⑤-⑥-|
①口口 |⑦-⑧-|

③口⑧口
口④⑤口
②口②口
⑦②⑥口
13
∨口口口 |①---|
①口口口 |②---|
口①②< |③---|
口∧>② |④---|

③<④口
口③<④
口口口口
口口口口

④口口口
②④口口
口②③口
口口口③
14
⑥口⑤④ |①-②-|
④口⑥口 |③---|
③口⑦③ |④-⑤-|
①①②口 |⑥-⑦-|
15
④口口口 |①---|
③④口口 |②---|
②①口② |③---|
①③口口 |④---|
16
口口口∨ |①---|
口口口① |②---|
②口口口 |③-④-|
①口口口 |⑤-⑥-|

⑤口口⑥
③口口③
口口口⑤
口④口口
17
⑪①②口 |①②③④|
口③④口 |⑤-⑥⑦|
口⑤⑩⑪ |⑧⑨⑩-|
⑦⑨⑧⑥ |⑪---|
18
口①―< |①---|
①―<口 |②-③-|
口口口口 |④-⑤-|
口口口口 |⑥-⑦-|

⑦②⑥④
②口口②
③口口口
口⑤口口
19
口口口口 |①---|
口口口口 |②-③-|
口>―① |④-⑤-|
―①口 |⑥-⑦-|

⑦④口⑥
口口口③
②⑤口②
口口②口
20
口⑦⑧口 |①-②-|
①②口⑦ |③-④-|
③⑤①⑥ |⑤-⑥-|
口④③⑤ |⑦-⑧-|
21
①口口口 |①---|
|口口口 |--②-|
|口口口 |--③-|
∧口口口 |--④-|

②口口口
③口口口
口口口④
口②②④
22
口口口口 |①---|
口②①< |--②-|
口①③口 |③---|
口口口口 |--④-|

④<口口
口口④口
口口口口
口口口口
23
口口口① |--①-|
口口口口 |----|
口口口③ |②---|
口②口口 |③---|
24
①口①∨ |①---|
②①口① |②---|
③口口口 |③---|
口口口口 |④---|

口口口口
口口口④
口④口口
口口口口
25
⑥⑦⑧⑨ |①②③④|
⑩口⑪⑪ |⑤-⑥⑦|
口口口⑤ |⑧⑨⑩-|
④③②① |⑪---|
26
④口口口 |①---|
口③口口 |②---|
①<②口 |③---|
口口口① |④---|
27
口①②③ |①---|
口口口④ |②---|
口口口口 |③---|
口口口口 |④---|
28
口口口口 |①---|
口④口口 |②---|
口口③① |③---|
口口口② |④---|
29
①②③④ |①---|
口口口口 |②---|
口口口口 |③---|
口口口口 |④---|
30
口口口口 |①-②-|
口⑤④① |③-④-|
⑦⑥②③ |⑤-⑥-|
口⑦⑦口 |⑦---|
31
口口②③ |①-②-|
①<④① |③-④-|
口口口⑤ |⑤-⑥-|
口口⑥口 |⑦---|

口口口口
⑦口口口
口口口口
⑦⑦口口
32
①<口口 |①-②-|
口①④口 |③-④-|
口③②⑤ |⑤-⑥-|
口口⑥口 |⑦---|

⑦口口口
⑦口口口
口口口口
口⑦口⑦
33
口口⑦⑦ |①-②-|
口③④⑤ |③-④-|
口②①⑥ |⑤-⑥-|
口口⑦⑦ |⑦---|
34
①①口口 |①---|
|口口口 |----|
|口口口 |②---|
∧口口口 |③---|

②口口口
口口③口
口②②口
口③口口
35
口②口② |①---|
口①口④ |②---|
口③③口 |③---|
口口①④ |④---|
36
口③⑦口 |①---|
②⑥④⑧ |②③④-|
口口口口 |⑤-⑥⑦|
①⑤①口 |⑧-⑨-|

口口口口
口口口口
口口口口
口口⑨口
37
③③口④ |①-②-|
口口口∧ |③---|
①②②∨ |④---|
①口口④ |----|
38
口口口① |①---|
――① |----|
――① |②-③-|
口口口① |④---|

口口②口
口③口②
口口④②
口口口口
39
①口口口 |①---|
∨口口口 |②-③-|
④口口口 |④-⑤⑥|
②口③口 |⑦---|

口口⑤口
口口⑥口
⑦口⑦口
口口口口
40
――① |①---|
口口口口 |②③④-|
口口口口 |⑤-⑥⑦|
口口口口 |⑧-⑨-|

口⑨⑤②
口口口口
⑧②⑥④
口⑦③口
41
④口口口 |①-②-|
∧②①① |③---|
∨②口口 |④---|
④口③③ |⑤---|

⑤⑤口口
口口口口
口口口口
⑤⑤口口
42
口口>① |①---|
∨∨>① |----|
②②②① |②---|
口口口口 |--③-|

口口口②
口口口②
③③口∨
口>③③
43
口口口口 |----|
①①< |①---|
口口口口 |--②-|
口口①① |----|

口口口口
口②②口
口口口口
口口口口

口②②②
口口||
口口∧∧
口口口口
44
①口①① |①---|
①⑥⑤④ |--②-|
①⑥⑤④ |③-④-|
③口口② |⑤-⑥-|
45
②④①③ |①---|
口口口口 |②---|
口口口口 |③---|
③①④② |④---|
46
口口口口 |①---|
∨∨①① |----|
①①∧∧ |②-③-|
口口口口 |④⑤⑥⑦|

③口④口
口⑤②②
②②⑥口
口⑦口口
47
口口口口 |①---|
②口⑤口 |②-③-|
口③口① |④-⑤-|
口口④① |⑥⑦⑧⑨|

口口口口
口口口口
口口⑧⑨
⑥⑦口口
48
口口口口 |①---|
――① |--②-|
口口口口 |③---|
口口口口 |④-⑤-|

口③③口
口口口②
④口口⑤
口口②⑤
49
口⑤⑥⑦ |①②-③|
⑧①②口 |④-⑤⑥|
⑨⑩⑩口 |⑦-⑧⑨|
⑩③④⑩ |⑩---|
50
①⑤口⑧ |①--②|
④口⑥③ |--③-|
口口口口 |④⑤⑥-|
口②⑦口 |⑦-⑧-|
51
①口⑤口 |①--②|
④⑥⑨③ |--③-|
口⑧⑦口 |④-⑤⑥|
口②口口 |⑦⑧⑨-|
52
①口口口 |①--②|
④⑥口③ |--③-|
⑦口⑤口 |④-⑤⑥|
口②口口 |⑦-⑧-|

⑧口口口
口口口口
口口口口
口口口口
53
⑥口口① |①--②|
③口口④ |--③-|
口口口口 |④--⑤|
口⑤②口 |--⑥-|
54
口口口口 |①-②-|
④口③口 |③-④-|
②口①⑦ |--⑤-|
口⑥口⑤ |⑥-⑦-|
55
①口口口 |①②③-|
口②口口 |----|
口>③口 |④---|
口口口口 |⑤⑥⑦-|

口⑤口口
口口⑥口
④口④⑦
口口口口
56
①口③① |①--②|
④口⑥∧ |--③-|
口②口口 |④--⑤|
口⑤口口 |--⑥-|
57
口③口① |①--②|
口⑤>④ |--③-|
①<②口 |④-⑤-|
口口⑥口 |⑥---|

口口口口
口口口⑥
④口口口
口口口口
58
①⑤口① |①--②|
④口⑥口 |--③-|
口口口口 |④⑤⑥-|
口②口③ |⑦-⑧-|

口口口⑧
口口口口
口口口口
口口⑦口
59
①口⑤口 |①--②|
④⑥⑨③ |--③-|
①⑧⑦口 |④-⑤⑥|
口②口口 |⑦⑧⑨-|
60
①口口① |①--②|
④⑥口③ |--③-|
⑦口⑤口 |④-⑤⑥|
口②口口 |⑦-⑧-|

⑧口口口
口口口口
口口口口
口口口口
61
⑥③①① |①--②|
③⑥口④ |--③-|
口口口④ |④--⑤|
⑤⑤②② |--⑥-|
62
口口口口 |①-②-|
④口③口 |③-④-|
②①①口 |--⑤-|
口口口口 |⑥-⑦-|

⑦―<口
口⑦―<
口口口⑦
口⑥⑦⑤
63
①口口口 |----|
口①口口 |----|
口口①口 |----|
口口口① |--①-|
64
口口口口 |----|
口口口口 |----|
口口口口 |----|
口口口口 |----|
65
口②口① |①---|
口口①口 |----|
②①口口 |----|
①②口② |②---|
66
―①口 |①---|
口>―① |②-③-|
口口口口 |④-⑤-|
口口口口 |⑥-⑦-|

④⑥②⑦
②口口②
口口口③
口口⑤口
67
口口口口 |①---|
口①口口 |②-③-|
①―<口 |④-⑤-|
口①―< |⑥-⑦-|

⑥口④口
③口口⑦
②口⑤②
口②口口
68
口口口口 |①---|
口口口口 |②-③④|
①口口 |⑤-⑥-|
①口①< |⑦-⑧-|

口⑧口③
口⑤④口
口②口②
口⑥②⑦
69
口口口∨ |①---|
口口口① |②---|
②①口 |③---|
②<∧口 |④---|

口④>③
④>③口
口口口口
口口口口

口口口④
口口④②
口③②口
③口口口
70
④⑤口⑥ |①-②-|
口⑥口④ |③---|
③⑦口③ |④-⑤-|
口②①① |⑥-⑦-|
71
口⑦口⑦ |①-②-|
②⑥⑦⑤ |③-④-|
③口①③ |⑤-⑥-|
④①⑤① |⑦---|
72
∨口口口 |①-②-|
①口口口 |③---|
口②口③ |④-⑤-|
口①口① |⑥-⑦-|

⑦口口⑥
④口口④
⑥口口口
口口⑤口
73
口②①⑪ |①②③④|
口④③口 |⑤-⑥⑦|
⑪⑩⑤口 |⑧⑨⑩-|
⑥⑧⑨⑦ |⑪---|
74
―①口 |①---|
口>―① |②-③-|
口口口口 |④-⑤-|
口口口口 |⑥-⑦-|

④⑥②⑦
②口口②
口口口③
口口⑤口
75
口口口口 |①---|
口①口口 |②-③-|
①―<口 |④-⑤-|
口①―< |⑥-⑦-|

⑥口④⑦
③口口口
②口⑤②
口②口口
76
口⑧⑦口 |①-②-|
⑦口②① |③-④-|
⑥①⑤③ |⑤-⑥-|
⑤③④口 |⑦-⑧-|
77
④口口① |①-②-|
∧①②③ |③-④-|
口④⑤口 |⑤---|
口∧③口 |⑥---|

⑥口⑥口
口口∧口
口⑥口⑥
口口口∧
78
口口①口 |①---|
①<口口 |②---|
口口口① |③-④-|
①②口 |⑤-⑥-|

⑥<口口
③口⑤口
④口③口
口③口口
79
②口口① |①-②-|
口口口口 |----|
口口口口 |③---|
口口>② |④---|

口③③口
口④④口
口口口③
④口口③
80
∨口口∨ |①---|
①口口① |----|
口①①口 |----|
口口口口 |----|
81
口②口口 |①---|
口口口口 |--②-|
口①③口 |----|
口口口口 |③---|
82
口口口口 |①---|
①口口① |----|
口口口口 |----|
①①< |----|
83
口④⑤⑥ |①---|
口①②口 |②---|
口③口口 |③-④⑤|
口③③⑥ |⑥---|
84
①口口口 |①---|
∨口口口 |--②-|
①口口口 |③④⑤-|
①口口口 |⑥-⑦-|

口③⑥口
口⑦④口
②⑤口③
口口⑥口
85
①⑤⑧③ |①-②-|
口⑨⑥④ |③-④-|
口⑦②⑤ |⑤⑥⑦-|
①②⑧③ |⑧-⑨-|
86
①口口口 |①---|
∧口口口 |----|
∨口口口 |②---|
①口口口 |③---|

②口口口
②口口③
②口口③
②口口口
87
口①⑧⑩ |①②③④|
口⑦②口 |⑤⑥⑦⑧|
⑨③⑥口 |⑨---|
口⑤④⑩ |⑩---|
88
①口口口 |①---|
①口口口 |--②-|
∧口口口 |③④⑤-|
①口口口 |⑥-⑦-|

口③⑥口
②⑦④口
口⑤口③
口口⑥口
89
①⑤⑧③ |①-②-|
口⑨⑥④ |③-④-|
口⑦②⑤ |⑤⑥⑦-|
①②⑧③ |⑧-⑨-|
90
①口口口 |①-②-|
|⑦⑥⑤ |--③-|
∧④②口 |④-⑤⑥|
①⑧口③ |⑦-⑧-|
91
①④⑪① |①②③④|
⑥⑩⑪口 |⑤-⑥⑦|
②⑪③⑦ |⑧⑨⑩-|
⑧⑪⑤⑨ |⑪---|
92
①⑤口② |①②③④|
口口口⑥ |⑤⑥--|
④口口口 |----|
口口③口 |----|
最終更新:2022年04月07日 13:54