アットウィキロゴ
思想犯
ヨルシカ

ADVANCED

Level: 8
BPM: 200
Notes: 592

1
口口口口 |----|
口口口口 |----|
口口口口 |----|
口口口口 |----|
2
口口口口 |①-②-|
口①②口 |③-④-|
口④③口 |----|
口口口口 |----|
3
口口口口 |①-②-|
口①②口 |③-④-|
口④③口 |----|
口口口口 |----|
4
口口口口 |①-②-|
口①②口 |③-④-|
口④③口 |----|
口口⑤口 |⑤---|
5
口口口① |①---|
口口口口 |----|
口②③口 |②-③-|
口口口口 |----|
6
口⑥③口 |①-②-|
口②⑤口 |③---|
①口口④ |④-⑤-|
口口口口 |⑥---|
7
口口口① |①---|
口口口口 |--②-|
口口口口
口口口②

③④⑤⑥
口口口口
口口口口 |③-④-|
口口口口 |⑤-⑥-|
8
口口口口 |①-②-|
口口口口 |③-④-|
⑦①②⑧ |⑤-⑥-|
⑤③④⑥ |⑦-⑧-|
9
①②③④ |①-②-|
口口口口 |③-④-|
口⑤⑥口 |⑤-⑥-|
口口口口 |----|
10
口③⑥口 |①-②-|
口⑤②口 |③---|
④口口① |④-⑤-|
口口口口 |⑥---|
11
①口口口 |①---|
口口口口 |--②-|
口口口口
②口口口

⑥⑤④③
口口口口
口口口口 |③-④-|
口口口口 |⑤-⑥-|
12
口口口口 |①-②-|
口口口口 |③-④-|
⑧②①⑦ |⑤-⑥-|
⑥④③⑤ |⑦-⑧-|
13
口口口口 |①-②-|
④口口口 |③---|
口②①口 |----|
口口③口 |--④-|
14
①口口口 |①---|
口口口口 |②---|
口③②口 |③---|
口口口口 |----|
15
⑤口⑥④ |①---|
口口口① |②-③-|
口口③口 |--④-|
口口②口 |⑤-⑥-|
16
口①口口 |①-②-|
口③②口 |③-④-|
口⑤④口 |⑤-⑥-|
口⑦⑥⑧ |⑦-⑧-|
17
②口口口 |①---|
口口口口 |----|
③口口口 |②---|
①口口口 |③---|
18
口口口① |①---|
口③④口 |②---|
口⑤⑥② |③-④-|
口口口口 |⑤-⑥-|
19
③口口口 |----|
②口口口 |--①-|
①口口口 |②-③-|
口口口口 |----|
20
口口③② |①---|
口④口口 |②-③-|
口口⑤① |--④-|
口口口口 |--⑤-|
21
口口口口 |----|
口口口① |----|
口口口口 |----|
口口口口 |--①-|
22
口口口① |①---|
口口口口 |②---|
口②③口 |③---|
口口口口 |----|
23
④⑥口⑤ |①---|
①口口口 |②-③-|
口③口口 |--④-|
口②口口 |⑤-⑥-|
24
口口①口 |①-②-|
口②③口 |③-④-|
口④⑤口 |⑤-⑥-|
⑧⑥⑦口 |⑦-⑧-|
25
①口口② |--①-|
口口口口 |----|
口口口口 |----|
口口口口 |--②-|
26
口口①口 |①---|
口②口口 |②---|
口口③口 |③---|
口④口口 |④---|
27
①口口② |①---|
口口③口 |----|
口④口口 |②-③-|
⑤口口口 |④-⑤-|
28
口口口口 |----|
口口口口 |----|
口口口口 |----|
口口口口 |----|
29
口口口① |----|
口口口② |----|
口口口口 |----|
口口口口 |①-②-|
30
口③③口 |①-②-|
口口⑤口 |--③-|
⑥口④① |--④-|
口口口② |⑤-⑥-|
31
口口口口 |①-②-|
①口口③ |③-④-|
口口口②
口④④口

⑤口口口
⑥口口口
口口口口 |----|
口口口口 |⑤-⑥-|
32
口③③口 |①-②-|
口⑤口口 |--③-|
①④口⑥ |--④-|
②口口口 |⑤-⑥-|
33
口口口口 |①-②-|
③口口① |③-④-|
②口口口
口④④口

口口口⑤
口口口⑥
口口口口 |----|
口口口口 |⑤-⑥-|
34
口③③口 |①-②-|
口口口口 |--③-|
口⑤④① |--④-|
口口⑥② |⑤-⑥-|
35
口③③④ |①---|
①口口① |②-③-|
口口口⑤ |--④-|
②口口② |--⑤-|
36
口②②口 |①---|
④①①③ |②---|
口口口口 |③---|
口口口口 |④---|
37
口口口口 |①---|
口口口口 |②---|
②口口① |③---|
口④⑤③ |④-⑤-|
38
①口口① |①---|
口口口口 |②-③-|
②③口②
口口口口

⑦⑦⑦⑦
口④⑤口
口口⑥口 |④-⑤-|
口口口口 |⑥-⑦-|
39
口口口口 |----|
口③③口 |①---|
②口口② |②---|
口①①口 |③---|
40
①③口① |①---|
③口口口 |②---|
口④②口 |③---|
口口口口 |④---|
41
③口①③ |①---|
口口口① |②---|
口口②口 |③---|
口④④口 |④---|
42
口②②③ |①---|
口②②④ |②---|
口口⑤口 |③-④-|
①口口① |⑤---|
43
口口口口 |①---|
①④④口 |②---|
③口口③ |③---|
口②②口 |④---|
44
①③口① |①---|
③口口口 |②---|
口④②口 |③---|
口口口口 |④---|
45
③口①③ |①---|
口口口① |②---|
口口②口 |③---|
口④④口 |④---|
46
口④③口 |①---|
④②②③ |②---|
①口口① |③---|
口口口口 |④---|
47
口口口口 |①---|
口④④口 |②---|
③①①③ |③---|
口②②口 |④---|
48
①③口① |①---|
③口口口 |②---|
口④口口 |③---|
口②②口 |④---|
49
③口①③ |①---|
口口口① |②---|
口口②口 |③---|
口④④口 |④---|
50
④②②口 |①---|
④②②口 |②---|
口口③口 |③---|
①口口① |④---|
51
口口口② |①---|
口口口② |②---|
③④⑤⑥ |③-④-|
口口①口 |⑤-⑥-|
52
④①①③ |①---|
口④③口 |②---|
口口口口 |③---|
口②②口 |④---|
53
口②①口 |①---|
②口口① |②---|
口③③口 |③---|
口④④口 |④---|
54
口口口① |①---|
②④口口 |②---|
口④口③ |③---|
口口口口 |④---|
55
②②口① |----|
口口口① |①---|
口口③③ |②---|
口口口口 |③---|
56
口⑤③② |①---|
①口口口 |②---|
①口口口 |③-④-|
口⑥④口 |⑤-⑥-|
57
口口口口 |①---|
①②口① |②---|
口口③口 |③---|
口口口④ |④---|
58
口口口口 |①-②-|
口②①口 |③-④-|
口③④口 |----|
口口口口 |----|
59
口口口口 |①-②-|
口②①口 |③-④-|
口③④口 |----|
口口口口 |----|
60
口口口口 |①-②-|
口②①口 |③-④-|
口③④口 |----|
口口口口 |----|
61
口口口口 |①-②-|
⑥②①口 |③-④-|
口③④⑤ |⑤---|
口口口口 |--⑥-|
62
①口口口 |①---|
口口口口 |②---|
口③②口 |③---|
口口口口 |----|
63
⑤口⑥④ |①---|
口口口① |②-③-|
口口③口 |--④-|
口口②口 |⑤-⑥-|
64
口①口口 |①-②-|
口③②口 |③-④-|
口⑤④口 |⑤-⑥-|
口⑦⑥⑧ |⑦-⑧-|
65
②口口口 |①---|
口口口口 |----|
③口口口 |②---|
①口口口 |③---|
66
口口口① |①---|
口③④口 |②---|
口⑤⑥② |③-④-|
口口口口 |⑤-⑥-|
67
③口口口 |----|
②口口口 |--①-|
①口口口 |②-③-|
口口口口 |----|
68
口口③② |①---|
口④口口 |②-③-|
口口⑤① |--④-|
口口口口 |--⑤-|
69
口口口口 |----|
口口口① |----|
口口口口 |----|
口口口口 |--①-|
70
口口口① |①---|
口口口口 |②---|
口②③口 |③---|
口④口口 |④---|
71
④⑥口⑤ |①---|
口口口③ |②-③-|
口口口② |--④-|
口口①口 |⑤-⑥-|
72
口口①口 |①-②-|
口②③口 |③-④-|
口④⑤口 |⑤-⑥-|
⑧⑥⑦口 |⑦-⑧-|
73
③口口口 |①---|
②口口口 |--②-|
口口口口 |③---|
口口口① |----|
74
口口口口 |①-②-|
口①②③ |③-④-|
口④⑤⑥ |⑤-⑥-|
口⑦⑧口 |⑦-⑧-|
75
③口口④ |--①-|
②⑤口口 |②-③-|
①口⑥口 |④---|
口口口口 |⑤-⑥-|
76
口口口口 |----|
口口口口 |----|
口口口口 |----|
口口口口 |----|
77
口口口口 |----|
口口口口 |----|
口口口口 |----|
口口口口 |----|
78
口口口① |①---|
④③②口 |②-③-|
口⑥⑤口 |④-⑤-|
口口⑦口 |⑥-⑦-|
79
④口口③ |--①-|
口口⑤② |②-③-|
口⑥口① |④---|
口口口口 |⑤-⑥-|
80
口口口口 |----|
口口口口 |----|
口口口口 |----|
口口口口 |----|
81
口口口口 |----|
口③③口 |①---|
②口口② |②---|
口①①口 |③---|
82
①③口① |①---|
③口口口 |②---|
口④②口 |③---|
口口口口 |④---|
83
③口①③ |①---|
口口口① |②---|
口口②口 |③---|
口④④口 |④---|
84
口②②③ |①---|
口②②④ |②---|
口口⑤口 |③-④-|
①口口① |⑤---|
85
口口口口 |①---|
①④④口 |②---|
③口口③ |③---|
口②②口 |④---|
86
①③口① |①---|
③口口口 |②---|
口④②口 |③---|
口口口口 |④---|
87
③口①③ |①---|
口口口① |②---|
口口②口 |③---|
口④④口 |④---|
88
口④③口 |①---|
④②②③ |②---|
①口口① |③---|
口口口口 |④---|
89
口口口口 |①---|
口④④口 |②---|
③①①③ |③---|
口②②口 |④---|
90
①③口① |①---|
③口口口 |②---|
口④口口 |③---|
口②②口 |④---|
91
③口①③ |①---|
口口口① |②---|
口口②口 |③---|
口④④口 |④---|
92
④②②口 |①---|
④②②口 |②---|
口口③口 |③---|
①口口① |④---|
93
口口口② |①---|
口口口② |②---|
③④⑤⑥ |③-④-|
口口①口 |⑤-⑥-|
94
⑤①①口 |①---|
口⑤③口 |②---|
口口④口 |③-④-|
口②②口 |⑤---|
95
口②①口 |①---|
②口口① |②---|
口③③口 |③---|
口④④口 |④---|
96
口口口① |①---|
②④口口 |②---|
口④口③ |③---|
口口口口 |④---|
97
②②口① |----|
口口口① |①---|
口口③③ |②---|
口口口口 |③---|
98
口⑤③② |①---|
①口口口 |②---|
①口口口 |③-④-|
口⑥④口 |⑤-⑥-|
99
口口口口 |①---|
①②口① |②---|
口口③口 |③---|
口口口④ |④---|
100
口⑥③口 |①-②-|
口②⑤口 |③---|
①口口④ |④-⑤-|
口口口口 |⑥---|
101
口口口① |①---|
口口口口 |--②-|
口口口口
口口口②

③④⑤⑥
口口口口
口口口口 |③-④-|
口口口口 |⑤-⑥-|
102
口口口口 |①-②-|
口口口口 |③-④-|
⑦①②⑧ |⑤-⑥-|
⑤③④⑥ |⑦-⑧-|
103
口口口口 |①-②-|
①③④② |③-④-|
口⑤⑥口 |⑤-⑥-|
口⑦⑧口 |⑦-⑧-|

accuracy: 99.5%
最終更新:2024年09月08日 16:19