アットウィキロゴ
思想犯
ヨルシカ

EXTREME

Level: 9.1
BPM: 200
Notes: 786

1
口口口口 |----|
口口口口 |----|
口口口口 |----|
口口口口 |----|
2
口口口口 |①-②-|
口口②④ |③-④-|
口口①③ |----|
口口口口 |----|
3
⑤口口口 |①-②-|
口⑥②④ |③-④-|
⑦口①③ |⑤-⑥-|
口⑧口口 |⑦-⑧-|
4
口口口口 |①-②-|
口口②④ |③-④-|
口口①③ |----|
口⑤口口 |⑤---|
5
①口口① |①---|
口口口口 |----|
口口口② |②-③-|
口口口③ |----|
6
⑥③②① |①-②-|
⑤口口④ |③---|
④口口⑤ |④-⑤-|
①②③⑥ |⑥---|
7
⑤⑤①① |①---|
口口②口 |--②-|
口③⑥口 |③-④-|
口口④口 |⑤-⑥-|
8
口口①① |①---|
④②③⑤ |②-③-|
⑥口口⑦ |④-⑤-|
口口口口 |⑥-⑦-|
9
⑤口①① |①---|
④②③口 |②-③-|
口口口口 |④-⑤-|
口口口口 |----|
10
⑥③②① |①-②-|
⑤口口④ |③---|
④口口⑤ |④-⑤-|
①②③⑥ |⑥---|
11
⑥⑥①① |①---|
口口②口 |--②-|
口③口口 |③-④-|
口⑤④口 |⑤-⑥-|
12
口口③口 |--①-|
⑤⑥④口 |②-③-|
口口口① |④-⑤-|
口口⑦② |⑥-⑦-|
13
口口口口 |①-②-|
口口口口 |③---|
口②①口
口③口口

口口口口
口口口口
口口④口 |----|
口口口口 |--④-|
14
⑥口口⑤ |①-②-|
③④口⑤ |③-④-|
口①口口 |⑤---|
口口②口 |⑥---|
15
口口⑦口 |①-②-|
口口⑥口 |③-④-|
口②①⑤ |--⑤-|
口④③口 |⑥-⑦-|
16
口口口口 |①-②-|
①口口⑤ |③-④-|
②③⑦⑥ |⑤-⑥-|
口④⑧口 |⑦-⑧-|
17
口口口② |①---|
口①①口 |②---|
⑥④口③ |③-④-|
口口⑤口 |⑤-⑥-|
18
口⑧⑧口 |①-②-|
口④⑤口 |③-④-|
口⑥①口 |⑤-⑥-|
口②⑦③ |⑦-⑧-|
19
④口口① |----|
口③口口 |①-②-|
口口②口 |③-④-|
口口口口 |----|
20
口⑧⑧口 |①-②-|
口④⑤口 |③-④-|
口⑥⑦③ |⑤-⑥-|
口①②口 |⑦-⑧-|
21
②口口① |----|
口③口口 |①---|
口口口口 |----|
口口口口 |②-③-|
22
⑥口口口 |①-②-|
口口口⑤ |③-④-|
口①④口 |⑤---|
口②③口 |⑥---|
23
口口口口 |①-②-|
⑤⑥⑦口 |③-④-|
口口口口 |--⑤-|
③①②④ |⑥-⑦-|
24
⑤口口口 |①-②-|
口口口⑥ |③-④-|
⑦①④口 |⑤-⑥-|
口③②⑧ |⑦-⑧-|
25
口①①② |--①-|
口口口口 |----|
口口口口 |----|
口口口口 |--②-|
26
口⑤⑤口 |①-②-|
口口①口 |③-④-|
口⑥⑥② |⑤---|
口④③口 |⑥---|
27
②口口口 |①---|
①③⑤口 |②---|
口口口口 |③-④-|
口⑥④口 |⑤-⑥-|
28
口口口① |--①-|
口口口口 |----|
口③④口 |②---|
口口口② |③-④-|
29
③口口口 |--①-|
④口口口 |②---|
口口口口 |----|
口①②口 |③-④-|
30
口口口口 |①-②-|
口③③⑥ |--③-|
①③③口 |--④-|
②⑤④口 |⑤-⑥-|
31
④④口口 |①-②-|
②口口口 |③-④-|
③口口①
口口口口

口口口口
口口口口
口口口⑥ |----|
口口口⑤ |⑤-⑥-|
32
口⑥口② |①-②-|
④口口① |--③-|
⑤口口口 |--④-|
口③③口 |⑤-⑥-|
33
⑤口④④ |①-②-|
⑥口①口 |③-④-|
口②口口 |----|
口口③口 |⑤-⑥-|
34
口口口口 |①-②-|
口⑤⑥③ |③-④-|
①⑦口口 |--⑤-|
②④④口 |⑥-⑦-|
35
⑤①①⑥ |①-②-|
②口口② |③-④-|
③⑦口③ |--⑤-|
口④④口 |⑥-⑦-|
36
口口口口 |①-②-|
④①②⑤ |③---|
口口③口 |④---|
口口口口 |⑤---|
37
口口口口 |①---|
口口口口 |②---|
①口口② |③---|
③⑤④口 |④-⑤-|
38
①口口① |①---|
口口口口 |②-③-|
②口③②
口口口口

⑦⑦⑦⑦
口⑤④口
口⑥口口 |④-⑤-|
口口口口 |⑥-⑦-|
39
口口口③ |----|
口②③口 |①---|
口③②① |②---|
③口①口 |③---|
40
①①②口 |①---|
①口⑤口 |②---|
③口④③ |③-④-|
口口口口 |⑤---|
41
③口口③ |①---|
①口④① |②---|
口②⑤口 |③-④-|
口口口口 |⑤---|
42
口②①口 |①---|
②⑤④① |②---|
①③口② |③-④-|
口①②口 |⑤---|
43
④口口② |①---|
口口口口 |②-③-|
④⑦①② |④-⑤-|
⑥③⑤⑥ |⑥-⑦-|
44
口口口口 |①-②-|
①⑤③① |③---|
④⑥②④ |④-⑤-|
口口口口 |⑥---|
45
⑤口④④ |①-②-|
口⑤口口 |③---|
口口③口 |④---|
①口②① |⑤---|
46
口①口口 |①-②-|
①口口口 |③-④-|
④口口②
口③③口

⑥口⑦⑤
⑧口⑤⑦
口口口口 |⑤-⑥-|
口口口口 |⑦-⑧-|
47
⑥口口⑥ |①---|
⑦④④⑤ |②-③-|
③②②口 |④-⑤-|
①口口① |⑥-⑦-|
48
口②口口 |①---|
口口⑤口 |②---|
③口④③ |③-④-|
口①①口 |⑤---|
49
③口口③ |①---|
①口④① |②---|
口②⑤口 |③-④-|
口口口口 |⑤---|
50
⑤②①⑤ |①---|
②口④① |②---|
①③口② |③-④-|
口①②口 |⑤---|
51
口②②口 |①---|
⑥⑥口口 |②---|
④口⑤⑤ |③-④-|
①③③① |⑤-⑥-|
52
①⑤③① |①---|
口⑥④口 |②---|
口口口口 |③-④-|
口③⑤② |⑤-⑥-|
53
③口⑤① |①-②-|
④口⑥② |③-④-|
⑦⑦⑦⑦ |⑤-⑥-|
①⑤口③ |⑦---|
54
⑤③⑥④ |①-②-|
口①口② |③-④-|
口口口口 |⑤-⑥-|
⑦⑦⑦⑦ |⑦---|
55
口⑤③① |----|
④②⑥口 |①-②-|
口⑤③① |③-④-|
口口口口 |⑤-⑥-|
56
④口⑤③ |①---|
⑥口口口 |②---|
口口③⑤ |③-④-|
②①①② |⑤-⑥-|
57
口口口口 |①-②-|
口③口① |③---|
②口④口 |④---|
口口①⑤ |⑤---|
58
口口口⑤ |①-②-|
④②口口 |③-④-|
③①口口 |----|
口口口口 |⑤---|
59
口口口⑤ |①-②-|
④②口口 |③-④-|
③①口口 |----|
口口口口 |⑤---|
60
口口口⑤ |①-②-|
④②口口 |③-④-|
③①口口 |----|
口口口口 |⑤---|
61
⑤口口口 |①-②-|
④②口口 |③-④-|
③①口口 |⑤---|
口口⑥口 |--⑥-|
62
口口口口 |①-②-|
口口②③ |③-④-|
口口①④ |⑤---|
口口口⑤ |----|
63
口口③② |①---|
口口口口 |②-③-|
口口①口
口口口口

口口口口
口口④⑤
口口⑥口 |--④-|
口口口口 |⑤-⑥-|
64
口口口④ |①-②-|
口口口口 |③-④-|
口口口②
口口①③

口口⑥口
口口⑤口
口口⑦口 |⑤-⑥-|
口口⑧口 |⑦-⑧-|
65
口口⑤口 |①---|
口口口④ |----|
口口③① |②-③-|
口口口② |④-⑤-|
66
口口口① |①---|
口口⑦⑥ |②-③-|
口口⑤② |④-⑤-|
口口③④ |⑥-⑦-|
67
口口口口 |----|
口口口③ |--①-|
口口口② |②-③-|
口口口① |----|
68
口口口④ |①-②-|
口口③口 |③-④-|
口口②口
口口①口

口口口口
口口口口
口口口⑤ |--⑤-|
口口⑦⑥ |⑥-⑦-|
69
口口口口 |----|
口口口口 |----|
口口口口 |----|
①口口口 |--①-|
70
⑦⑥口口 |①---|
①⑤①口 |②-③-|
④②口口 |④-⑤-|
口③口口 |⑥-⑦-|
71
口口口口 |①---|
①⑦①口 |②-③-|
⑥③④口 |④-⑤-|
⑤②口口 |⑥-⑦-|
72
②①①口 |①-②-|
③口口口 |③-④-|
口④口口
口口口口

口⑧口口
口⑦口口
⑥口口口 |⑤-⑥-|
口⑤口口 |⑦-⑧-|
73
①口口口 |①---|
口口①口 |--②-|
口口③口 |③---|
③②口口 |----|
74
①②①口 |①-②-|
③⑧口口 |③-④-|
⑦④口口 |⑤-⑥-|
⑥⑤口口 |⑦-⑧-|
75
②口口口 |①-②-|
③⑧①口 |③-④-|
⑦④⑤口 |⑤-⑥-|
⑥⑤口口 |⑦-⑧-|
76
口口①口 |①---|
口口口口 |----|
口口②口 |----|
口口口口 |②---|
77
口口口② |①---|
口口①口 |--②-|
口口口口 |----|
口口口口 |----|
78
②⑦口口 |①---|
③④口口 |②-③-|
①①①① |④-⑤-|
⑥⑤口口 |⑥-⑦-|
79
⑤口口口 |①-②-|
③④①口 |③-④-|
⑥②⑤口 |⑤-⑥-|
⑧⑦口口 |⑦-⑧-|
80
口口①口 |①---|
口口口口 |----|
口口口口 |----|
口口口口 |----|
81
口口口③ |----|
口②③口 |①---|
口③②① |②---|
③口①口 |③---|
82
①①②口 |①---|
①口⑤口 |②---|
③口④③ |③-④-|
口口口口 |⑤---|
83
③口口③ |①---|
①口④① |②---|
口②⑤口 |③-④-|
口口口口 |⑤---|
84
口②①口 |①---|
②⑤④① |②---|
①③口② |③-④-|
口①②口 |⑤---|
85
④口口② |①---|
口口口口 |②-③-|
④⑦①② |④-⑤-|
⑥③⑤⑥ |⑥-⑦-|
86
口口口口 |①-②-|
①⑤③① |③---|
④⑥②④ |④-⑤-|
口口口口 |⑥---|
87
⑤口④④ |①-②-|
口⑤口口 |③---|
口口③口 |④---|
①口②① |⑤---|
88
口①口口 |①-②-|
①口口口 |③-④-|
④口口②
口③③口

⑥口⑦⑤
⑧口⑤⑦
口口口口 |⑤-⑥-|
口口口口 |⑦-⑧-|
89
⑥口口⑥ |①---|
⑦④④⑤ |②-③-|
③②②口 |④-⑤-|
①口口① |⑥-⑦-|
90
口②口口 |①---|
口口⑤口 |②---|
③口④③ |③-④-|
口①①口 |⑤---|
91
③口口③ |①---|
①口④① |②---|
口②⑤口 |③-④-|
口口口口 |⑤---|
92
⑤②①⑤ |①---|
②口④① |②---|
①③口② |③-④-|
口①②口 |⑤---|
93
口②②口 |①---|
⑥⑥口口 |②---|
④口⑤⑤ |③-④-|
①③③① |⑤-⑥-|
94
①⑤③① |①---|
口⑥④口 |②---|
口口口口 |③-④-|
口③⑤② |⑤-⑥-|
95
③口⑤① |①-②-|
④口⑥② |③-④-|
⑦⑦⑦⑦ |⑤-⑥-|
①⑤口③ |⑦---|
96
⑤③⑥④ |①-②-|
口①口② |③-④-|
口口口口 |⑤-⑥-|
⑦⑦⑦⑦ |⑦---|
97
口⑤③① |----|
④②⑥口 |①-②-|
口⑤③① |③-④-|
口口口口 |⑤-⑥-|
98
④口⑤③ |①---|
⑥口口口 |②---|
口口③⑤ |③-④-|
②①①② |⑤-⑥-|
99
口口口口 |①-②-|
口③口① |③---|
②口④口 |④---|
口口①⑤ |⑤---|
100
⑥③②① |①-②-|
⑤口口④ |③---|
④口口⑤ |④-⑤-|
①②③⑥ |⑥---|
101
⑥⑤①① |①---|
⑥⑤②口 |--②-|
口③口口 |③-④-|
口口④口 |⑤-⑥-|
102
口口口④ |--①-|
口口口④ |②-③-|
口③②① |④-⑤-|
⑤⑥⑦口 |⑥-⑦-|
103
①⑧⑧⑤ |①-②-|
①口口⑤ |③-④-|
口④③② |⑤-⑥-|
⑥⑦口口 |⑦-⑧-|

accuracy: 99.5%
最終更新:2024年09月08日 16:19