アットウィキロゴ
ボッカデラベリタ
柊キライ

ADVANCED

Level: 7
BPM: 170
Notes: 545

1
口口口口 |----|
口口口口 |----|
口口口口 |----|
口口口口 |----|
2
口口口① |①---|
②口④① |②---|
②⑤口③ |③--④|
口口口③ |--⑤-|
3
①口口口 |①-②-|
⑥②口⑤ |③-④-|
口口④口 |⑤--⑥|
口口⑦③ |--⑦-|
4
③⑤口口 |--①-|
口⑥④② |②-③-|
①口口口 |④---|
口口口口 |⑤-⑥-|
5
口口口口 |①-②-|
⑥口口口 |③-④-|
口④①⑤ |⑤---|
口③②口 |⑥---|
6
③口口口 |①---|
口①①④ |②---|
⑤②②口 |③--④|
口口口口 |--⑤-|
7
口口⑥口 |①-②-|
④⑤⑦口 |③-④-|
口口口③ |⑤--⑥|
口①②口 |--⑦-|
8
口③④口 |--①-|
口口口口 |②---|
②口口口 |③---|
口①口口 |④---|
9
口②口口 |①---|
①口③① |----|
口口口口 |②---|
口口口口 |③---|
10
③口口③ |①---|
口④口② |--②-|
口①①口 |③---|
口口口口 |④---|
11
口①①口 |①---|
②口④口 |--②-|
③口口③ |③---|
口口口口 |④---|
12
③口口③ |①---|
口④口② |--②-|
口①①口 |③---|
口口口口 |④---|
13
口①①口 |①---|
口口口口 |----|
口口口口
口口口口

口④口口
口口③口
口②口口 |--②-|
口口口口 |③-④-|
14
口口口① |①---|
②口口① |②---|
②④口③ |③--④|
口口口③ |----|
15
④口口⑤ |①-②-|
口口③⑥ |③-④-|
②⑦口口 |⑤--⑥|
口口①口 |--⑦-|
16
口②③口 |①---|
①口口④ |②---|
口口口口 |③---|
口口口口 |④---|
17
口口口口 |①---|
④①口口 |②---|
口①③② |③---|
口口③口 |④---|
18
口口口口 |①---|
口口口口 |②---|
①口口④ |③---|
口②③口 |④---|
19
③口口③ |①---|
口①口② |②---|
口①④口 |③---|
口口口口 |④---|
20
②口③口 |①---|
口④口① |②---|
口口⑤口 |③-④-|
口⑥口口 |⑤-⑥-|
21
口口口口 |----|
③口口口 |----|
②口口口 |--①-|
①口口口 |②-③-|
22
口③口口 |①---|
④①①口 |②---|
口②②口 |③---|
口口口口 |④---|
23
口口口口 |①---|
口口口② |②---|
口③口① |③---|
口口④口 |④---|
24
口②③口 |①---|
①口口④ |②---|
口口口口 |③---|
口口口口 |④---|
25
口口口口 |①---|
④①口口 |②---|
口①③② |③---|
口口③口 |④---|
26
口口口口 |①---|
口口口口 |②---|
①口口④ |③---|
口②③口 |④---|
27
口③③口 |①---|
口①口② |②---|
口①口口 |③---|
口口口口 |----|
28
①口口① |①---|
口②口口 |②---|
口口③口 |③---|
口④口口 |④---|
29
口口口口 |①---|
③口口③ |②---|
②口口② |③---|
①口口① |----|
30
②口①口 |①---|
口口①口 |②---|
口③口口 |③---|
口③口④ |④---|
31
口①②口 |①---|
②③③① |②---|
②口口① |③---|
口口口口 |----|
32
口口口④ |①---|
口口口③ |②---|
口口口② |③---|
口口口① |④---|
33
口口④口 |①---|
口口③口 |②---|
口口②口 |③---|
口口①口 |④---|
34
口④口口 |①---|
口③口口 |②---|
口②口口 |③---|
口①口口 |④---|
35
④口口口 |①---|
③口口口 |②---|
②口口口 |③---|
①口口口 |④---|
36
口口口口 |①---|
口①①口 |②---|
口②②口
口口口口

③口口③
口④口口
口口口口 |③---|
口口口口 |④---|
37
口④口口 |①---|
③口②③ |②---|
①口口① |③---|
口口口口 |④---|
38
①口②① |①-②-|
口③⑧口 |③-④-|
口⑦④口 |⑤-⑥-|
口⑤⑥口 |⑦-⑧-|
39
①口口① |①--②|
口②⑥口 |--③-|
口⑤③口 |④--⑤|
④口口④ |--⑥-|
40
口口②① |①-②-|
③④口口 |③-④-|
口口⑥⑤ |⑤-⑥-|
⑦⑧口口 |⑦-⑧-|
41
口口口① |--①-|
口②⑤③ |②-③-|
⑥④口口 |④-⑤-|
口口⑦口 |⑥-⑦-|
42
①②口口 |①-②-|
口口④③ |③-④-|
⑤⑥口口 |⑤-⑥-|
口口⑧⑦ |⑦-⑧-|
43
口口口口 |--①-|
③口口⑦ |②-③-|
口⑥②⑤ |④-⑤-|
①④口口 |⑥-⑦-|
44
口口②① |①-②-|
③④口口 |③-④-|
口口⑥⑤ |⑤-⑥-|
⑦⑧口口 |⑦-⑧-|
45
口口口① |--①-|
口②⑤③ |②-③-|
⑥④口口 |④-⑤-|
口口⑦口 |⑥-⑦-|
46
①口口口 |①---|
①口口② |②---|
③⑤④② |③--④|
③口口口 |--⑤-|
47
口①②口 |①---|
②③③① |②---|
②口口① |③---|
口口口口 |----|
48
口口口口 |①--②|
口口口③ |--③-|
口口口② |④--⑤|
④⑤⑥① |--⑥-|
49
口①⑥口 |①--②|
口②口⑤ |--③-|
④③口口 |--④-|
口口口口 |⑤-⑥-|
50
①口口③ |①-②-|
口②④口 |③-④-|
口⑥⑧口 |⑤-⑥-|
⑤口口⑦ |⑦-⑧-|
51
⑧口口① |①-②-|
口②⑦口 |③-④-|
⑥口口③ |⑤-⑥-|
口④⑤口 |⑦-⑧-|
52
口口②口 |①-②-|
口①口③ |③---|
⑥口④口 |④-⑤-|
口⑤口口 |⑥---|
53
①口口③ |①-②-|
口②④口 |③-④-|
口⑥⑧口 |⑤-⑥-|
⑤口口⑦ |⑦-⑧-|
54
①口口④ |①---|
③口②口 |②---|
口口口口 |③---|
口口口口 |④---|
55
口①②口 |①---|
②③③① |②---|
②口口① |③---|
口口口口 |----|
56
口口口① |①---|
②口口① |②---|
②④⑤③ |③--④|
口口口③ |--⑤-|
57
④口⑤口 |①-②-|
口⑥③口 |③-④-|
②⑦口口 |⑤--⑥|
口口①口 |--⑦-|
58
⑤口口④ |①-②-|
⑥口口③ |③-④-|
⑦口口② |⑤-⑥-|
⑧口口① |⑦-⑧-|
59
口⑤⑥口 |①-②-|
口⑦④① |③-④-|
口③⑧① |⑤-⑥-|
口口②口 |⑦-⑧-|
60
口口口口 |①---|
③④③③ |②---|
②②⑤② |③--④|
①口①① |--⑤-|
61
口⑥口③ |①-②-|
⑤⑦④⑤ |③-④-|
口②口口 |⑤--⑥|
①口口口 |--⑦-|
62
③⑤口① |--①-|
口⑥④口 |②-③-|
口口②口 |④---|
口口口口 |⑤-⑥-|
63
口口口口 |①---|
④口口口 |②---|
口口①③ |③---|
口②口口 |④---|
64
③口口口 |①---|
口①①④ |②---|
⑤②②口 |③--④|
口口口口 |--⑤-|
65
口口⑥③ |①-②-|
④⑤⑦口 |③-④-|
口②口口 |⑤--⑥|
①口口① |--⑦-|
66
口③口口 |--①-|
口④口口 |②---|
②口口口 |③---|
口①口口 |④---|
67
口口口口 |①-②-|
①口⑥① |--③-|
④⑤②④ |-④----⑤-|
口③口口 |--⑥-|
68
口口②① |①-②-|
③④口口 |③-④-|
口口⑥⑤ |⑤-⑥-|
⑦⑧口口 |⑦-⑧-|
69
口口口① |--①-|
口②⑤③ |②-③-|
⑥④口口 |④-⑤-|
口口⑦口 |⑥-⑦-|
70
①②口口 |①-②-|
口口④③ |③-④-|
⑤⑥口口 |⑤-⑥-|
口口⑧⑦ |⑦-⑧-|
71
口口口口 |--①-|
③口口⑦ |②-③-|
口⑥②⑤ |④-⑤-|
①④口口 |⑥-⑦-|
72
口口②① |①-②-|
③④口口 |③-④-|
口口⑥⑤ |⑤-⑥-|
⑦⑧口口 |⑦-⑧-|
73
口口口① |--①-|
口②⑤③ |②-③-|
口④⑥口 |④-⑤-|
口口⑦口 |⑥-⑦-|
74
①口口口 |①---|
①口口② |②---|
③⑤④② |③--④|
③口口口 |--⑤-|
75
口①②口 |①---|
②③口① |②---|
②口④① |③---|
口口口口 |④---|
76
口口口口 |①---|
口口口口 |----|
口口口口 |----|
①口口① |----|
77
①口口口 |①---|
①口口② |②---|
③口口② |③---|
③口口口 |----|
78
③口口③ |①---|
口④口② |--②-|
口①①口 |③---|
口口口口 |④---|
79
口①①口 |①---|
②口④口 |--②-|
③口口③ |③---|
口口口口 |④---|
80
③口口③ |①---|
口④口② |--②-|
口①①口 |③---|
口口口口 |④---|
81
②①①口 |①---|
④口口③ |②-③-|
⑥口口⑤ |④-⑤-|
口口口⑦ |⑥-⑦-|
82
口②口口 |①---|
口口口③ |②-③-|
口①①口
口口口口

④口口④
口口口口
口⑤口口 |④---|
口口口口 |⑤---|
83
口①①口 |①---|
③口⑤口 |②-③-|
④口②④ |④---|
口口口口 |⑤---|
84
④②口④ |①---|
口⑤⑤③ |②-③-|
口①①口 |④---|
口口口口 |⑤---|
85
②①①口 |①---|
④口口③ |②-③-|
⑥口口⑤ |④-⑤-|
口口口⑦ |⑥-⑦-|
86
口口口口 |①---|
口口口口 |----|
口①①口 |----|
口口口口 |----|

accuracy: 99.5%
最終更新:2024年09月08日 17:20