アットウィキロゴ
ボッカデラベリタ
柊キライ

EXTREME

Level: 9.0
BPM: 170
Notes: 723

1
口口口口 |----|
口口口口 |----|
口口口口 |----|
口口口口 |----|
2
口②①口 |①---|
③②①③ |②---|
⑤②①口 |③--④|
口②①④ |--⑤-|
3
⑤口口① |①-②-|
⑤口②口 |③-④-|
口③口⑥ |⑤--⑥|
④⑦⑦⑥ |--⑦-|
4
③⑦④口 |--①-|
口⑥⑤② |②-③-|
①口口口 |④-⑤-|
口口口口 |⑥-⑦-|
5
口口口① |①-②-|
②口口口 |③-④-|
口⑥⑤③ |⑤---|
④⑥⑤口 |⑥---|
6
口口口口 |①---|
①①口口 |②---|
口口②②
口口口口

口④口口
口⑤口③
③口口口 |③--④|
口口口口 |--⑤-|
7
口口④口 |①-②-|
⑦口③⑤ |③-④-|
口⑥②口 |⑤--⑥|
口口①口 |--⑦-|
8
⑦①口口 |--①-|
口⑥②口 |②-③-|
口口⑤③ |④-⑤-|
口口口④ |⑥-⑦-|
9
口②①① |①-②-|
口口⑤① |--③-|
①④口口 |④---|
①①③口 |⑤---|
10
①①口② |①---|
口⑦口③ |②-③-|
口⑥口④ |④-⑤-|
口⑤口口 |⑥-⑦-|
11
口口②口 |①---|
⑦口③口 |②-③-|
⑥口④口 |④-⑤-|
⑤口①① |⑥-⑦-|
12
①①口② |①---|
口⑦口③ |②-③-|
口⑥口④ |④-⑤-|
口⑤口口 |⑥-⑦-|
13
①口口① |①---|
口口③② |②-③-|
④⑤口口 |④-⑤-|
口口⑦⑥ |⑥-⑦-|
14
①口口口 |①---|
①口口② |②---|
③⑤④② |③--④|
③口口口 |--⑤-|
15
口⑤口口 |①-②-|
①②③④ |③-④-|
口口⑥口 |⑤--⑥|
口⑦口口 |--⑦-|
16
③口④口 |--①-|
口口⑤② |②-③-|
①口⑥口 |④-⑤-|
口口⑦口 |⑥-⑦-|
17
口⑤⑥⑦ |①-②-|
④③口口 |③-④-|
口②口① |⑤-⑥-|
口口口口 |⑦---|
18
④口口口 |①-②-|
口口口③ |③-④-|
②口口口
口①①口

口口⑤口
口口⑥口
口口⑦口 |⑤-⑥-|
口口⑧口 |⑦-⑧-|
19
⑤口口口 |①-②-|
⑥④口口 |③---|
①口口③ |④---|
口②口口 |⑤-⑥-|
20
口口⑤口 |①-②-|
口⑥口④ |③-④-|
①口⑦③ |⑤-⑥-|
口⑧口② |⑦-⑧-|
21
口口口口 |----|
口口③口 |----|
口②口口 |--①-|
口口①口 |②-③-|
22
口口口口 |①---|
①①口口 |②---|
口口②②
口口口口

口④口口
口⑤口③
③口口口 |③--④|
口口口口 |--⑤-|
23
口口④口 |①-②-|
口口③⑤ |③-④-|
口⑥②口 |⑤--⑥|
⑦口①口 |--⑦-|
24
口④口③ |--①-|
②⑤口口 |②-③-|
口⑥口① |④-⑤-|
口⑦口口 |⑥-⑦-|
25
⑦⑥⑤口 |①-②-|
口口③④ |③-④-|
①口②口 |⑤-⑥-|
口口口口 |⑦---|
26
口口口④ |①-②-|
③口口口 |③-④-|
口口口②
口①①口

口⑤口口
口⑥口口
口⑦口口 |⑤-⑥-|
口⑧口口 |⑦-⑧-|
27
④口⑤口 |①-②-|
⑥⑦口③ |③-④-|
②口口口 |⑤---|
口口口① |⑥-⑦-|
28
③④⑤口 |①-②-|
口⑥①② |③-④-|
口口⑦口 |⑤-⑥-|
口⑧口口 |⑦-⑧-|
29
⑤④口⑤ |①-②-|
③口②③ |③-④-|
①⑥⑥① |⑤---|
口口口口 |⑥---|
30
②④④口 |①---|
⑤①①⑤ |②-③-|
口口口③ |④---|
口口口口 |⑤---|
31
①口口② |①---|
③①②③ |②---|
③②①③ |③---|
②口口① |----|
32
口口③口 |①---|
④②①口 |②---|
口②①⑤ |③--④|
口口口口 |--⑤-|
33
口④口口 |①-②-|
⑤口③口 |③-④-|
口②⑥口 |⑤--⑥|
⑦口①口 |--⑦-|
34
口①⑦口 |--①-|
口口②⑥ |②-③-|
口③⑤口 |④-⑤-|
口口口④ |⑥-⑦-|
35
口⑤⑥口 |①-②-|
①口③口 |③-④-|
口②口④ |⑤---|
口口口口 |⑥---|
36
口③口口 |①---|
口①①④ |②---|
⑤②②口 |③--④|
口口口口 |--⑤-|
37
口⑤⑤口 |①-②-|
②③口⑥ |③-④-|
口④⑦口 |⑤--⑥|
口①①口 |--⑦-|
38
⑤口口⑦ |①-②-|
⑤②④⑦ |③-④-|
①⑥⑧③ |⑤-⑥-|
①口口③ |⑦-⑧-|
39
口①①口 |①--②|
口②口口 |--③-|
③口⑤口 |④--⑤|
口④④⑥ |--⑥-|
40
口⑦①口 |①-②-|
⑦④⑥① |③-④-|
⑤②⑧③ |⑤-⑥-|
口⑤③口 |⑦-⑧-|
41
口⑥①口 |--①-|
⑦口⑤② |②-③-|
口口口③ |④-⑤-|
口口④口 |⑥-⑦-|
42
口⑦①口 |①-②-|
⑦④⑥① |③-④-|
⑤②⑧③ |⑤-⑥-|
口⑤③口 |⑦-⑧-|
43
④口口⑤ |--①-|
⑥口③口 |②-③-|
口口⑦② |④-⑤⑥|
口口口① |--⑦-|
44
口⑦①口 |①-②-|
⑦④⑥① |③-④-|
⑤②⑧③ |⑤-⑥-|
口⑤③口 |⑦-⑧-|
45
口口口口 |--①-|
口⑦口① |②-③-|
口⑥口② |④-⑤-|
口⑤④③ |⑥-⑦-|
46
①口口口 |①---|
①口口② |②---|
③⑤④② |③--④|
③口口口 |--⑤-|
47
口①②口 |①---|
②③③① |②---|
②口口① |③---|
口口口口 |----|
48
口⑦口④ |①--②|
③⑧⑤口 |--③-|
⑥口⑨② |④⑤-⑥|
①口⑩口 |⑦⑧⑨⑩|
49
口④口③ |①--②|
②口⑤口 |--③-|
口⑥口① |--④-|
口口口口 |⑤-⑥-|
50
⑫口⑨⑧ |①②③-|
⑥⑦⑪口 |④⑤-⑥|
⑩口⑤④ |⑦-⑧⑨|
①②③口 |-⑩⑪⑫|
51
口①⑧口 |①-②-|
⑦口口② |③-④-|
口③⑥口 |⑤-⑥-|
⑤口口④ |⑦-⑧-|
52
①口口口 |①-②-|
口②④口 |③-④-|
⑤口⑦③ |--⑤-|
口⑥口口 |⑥-⑦-|
53
⑦③②⑥ |-①②③|
④口⑧① |④⑤-⑥|
⑨⑤口口 |-⑦-⑧|
口口⑩口 |⑨-⑩-|
54
口③口④ |--①-|
⑤②口口 |②-③-|
口①口⑥ |④-⑤⑥|
口⑦口口 |--⑦-|
55
③③口口 |①---|
口口②② |②---|
①①口口 |③---|
口口口口 |----|
56
口②①口 |①---|
③②①③ |②---|
⑤②①口 |③--④|
口②①④ |--⑤-|
57
⑤口口① |①-②-|
⑤口②口 |③-④-|
口③口⑥ |⑤--⑥|
④⑦⑦⑥ |--⑦-|
58
⑨口④⑤ |①-②-|
⑩②③⑥ |③-④-|
⑪①口⑦ |⑤⑥⑦⑧|
⑫口口⑧ |⑨⑩⑪⑫|
59
口口口⑧ |①-②-|
口①①⑦ |③-④-|
⑥④②口 |⑤-⑥-|
口⑤③口 |⑦-⑧-|
60
口②①口 |①---|
③②①③ |②---|
⑤②①口 |③--④|
口②①④ |--⑤-|
61
口口口① |①-②-|
⑤⑤②口 |③-④-|
口③口⑥ |⑤--⑥|
④⑦⑦⑥ |--⑦-|
62
③⑦④口 |--①-|
口⑥⑤② |②-③-|
①口口口 |④-⑤-|
口口口口 |⑥-⑦-|
63
口口口① |①-②-|
②口口口 |③-④-|
⑤口口③ |⑤---|
④口口⑥ |⑥---|
64
口②①口 |①---|
③②①③ |②---|
口②①④ |③--④|
⑤②①口 |--⑤-|
65
口口④口 |①-②-|
口口③⑤ |③-④-|
⑦⑥②口 |⑤--⑥|
口口①口 |--⑦-|
66
④①口口 |--①-|
口⑤②口 |②-③-|
口口⑥③ |④-⑤-|
口口口⑦ |⑥-⑦-|
67
口④口口 |①--②|
⑤③口口 |--③-|
口口⑥② |④---|
口口①口 |⑤-⑥-|
68
口⑦①口 |①-②-|
⑦④⑥① |③-④-|
⑤②⑧③ |⑤-⑥-|
口⑤③口 |⑦-⑧-|
69
口⑥①口 |--①-|
⑦口⑤② |②-③-|
口口口③ |④-⑤-|
口口④口 |⑥-⑦-|
70
口⑦①口 |①-②-|
⑦④⑥① |③-④-|
⑤②⑧③ |⑤-⑥-|
口⑤③口 |⑦-⑧-|
71
④口口⑤ |--①-|
⑥口③口 |②-③-|
口口⑦② |④-⑤⑥|
口口口① |--⑦-|
72
口⑦①口 |①-②-|
⑦④⑥① |③-④-|
⑤②⑧③ |⑤-⑥-|
口⑤③口 |⑦-⑧-|
73
口口口口 |--①-|
口⑦口① |②-③-|
口⑥口② |④-⑤-|
口⑤③④ |⑥-⑦-|
74
①口口口 |①---|
①口口② |②---|
③⑤④② |③--④|
③口口口 |--⑤-|
75
口②⑥④ |①-②-|
①⑤③⑥ |③-④-|
⑥口⑤口 |⑤---|
口⑥口口 |⑥---|
76
①①口口 |①---|
①口口口 |----|
口口口① |----|
口口①① |----|
77
口口口口 |①---|
③③③③ |②---|
②②②② |③---|
①①①① |----|
78
①①口② |①---|
口⑦口③ |②-③-|
口⑥口④ |④-⑤-|
口⑤口口 |⑥-⑦-|
79
口口②口 |①---|
⑦口③口 |②-③-|
⑥口④口 |④-⑤-|
⑤口①① |⑥-⑦-|
80
①①口② |①---|
口⑦口③ |②-③-|
口⑥口④ |④-⑤-|
口⑤口口 |⑥-⑦-|
81
①②③① |①---|
⑥⑦⑤④ |②-③-|
口口口口 |④-⑤-|
口口口口 |⑥-⑦-|
82
口⑪⑫口 |①---|
⑨口⑩⑧ |②③④⑤|
⑤⑦⑥④ |⑥⑦⑧⑨|
①③②① |⑩-⑪-⑫-|
83
口⑬⑫口 |①---|
⑨⑪⑩⑧ |②③④⑤|
⑤⑦⑥④ |⑥⑦⑧⑨|
①③②① |⑩⑪⑫⑬|
84
⑨口⑧⑩ |①---|
口⑦口⑥ |②③④⑤|
⑤口口④ |⑥-⑦-|
①③②① |⑧-⑨-⑩-|
85
口①口口 |①---|
口口③② |②-③-|
④⑤口口 |④-⑤-|
口⑦⑥口 |⑥-⑦-|
86
口口口口 |①---|
口①口口 |----|
口口①口 |----|
口口口口 |----|

accuracy: 99.5%
最終更新:2024年11月23日 20:26