アットウィキロゴ
turn into white
BEMANI Sound Team "S-C-U & TATSUYA"

BASIC

Level: 3
BPM: 186
Notes: 242

1
口口口口 |----|
口口口口 |----|
口口口口 |----|
口口口口 |----|
2
口①口口 |①---|
口口口口 |----|
口口口口 |----|
口口口口 |----|
3
口口口口 |①---|
口口①口 |----|
口口口口 |----|
口口口口 |----|
4
口口口口 |①---|
口口口口 |----|
口①口口 |----|
口口口口 |----|
5
口口口口 |①---|
口口口口 |----|
口口口口 |----|
口口①口 |----|
6
口口口口 |①---|
①②③④ |②---|
口口口口 |③---|
口口口口 |④---|
7
口口口口 |①---|
口口口口 |②---|
④③②① |③---|
口口口口 |④---|
8
口口口口 |①---|
口口口口 |----|
口口②口 |②---|
口①口口 |----|
9
口①①口 |①---|
口口口口 |----|
口口口口 |----|
口口口口 |----|
10
①②口口 |①---|
口口③④ |②---|
口口口口 |③---|
口口口口 |④---|
11
口口②① |①---|
④③口口 |②---|
口口口口 |③---|
口口口口 |④---|
12
口口口口 |①---|
口口口口 |②---|
①②口口 |③---|
口口③④ |④---|
13
口口口口 |①---|
口口口口 |②---|
口口②① |③---|
④③口口 |④---|
14
口口口口 |①---|
①②口口 |----|
口口口口 |②---|
口口口口 |----|
15
口口口口 |①---|
口口①② |----|
口口口口 |②---|
口口口口 |----|
16
口③③口 |①---|
口②②口 |--②-|
口①①口 |----|
口口口口 |③---|
17
口口口口 |----|
口口口口 |----|
口口口口 |----|
口口口口 |----|
18
①口口口 |①---|
②口口口 |----|
口口口口 |②---|
口口口口 |----|
19
口口口口 |①---|
口口口口 |----|
①口口口 |②---|
②口口口 |----|
20
口口口口 |①---|
口口口口 |----|
口②②口 |②---|
口①①口 |----|
21
口②②口 |①---|
口①①口 |----|
口口口口 |②---|
口口口口 |----|
22
口口口口 |①---|
①口口① |----|
口口口口 |----|
口口口口 |----|
23
口口口口 |①---|
口口口口 |----|
①口口① |----|
口口口口 |----|
24
口口口口 |①---|
口口口口 |----|
②②②② |②---|
①①①① |----|
25
②②②② |①---|
①①①① |----|
口口口口 |②---|
口口口口 |----|
26
口②口口 |①---|
①口口口 |----|
口口口口 |②---|
口口口口 |----|
27
口口①口 |①---|
口口口② |----|
口口口口 |②---|
口口口口 |----|
28
口口口口 |①---|
口口口口 |----|
口口口① |②---|
口口②口 |----|
29
口口口口 |①---|
口口口口 |----|
②口口口 |②---|
口①口口 |----|
30
口②口口 |①---|
①口口口 |----|
口口口口 |②---|
口口口口 |----|
31
口口①口 |①---|
口口口② |----|
口口口口 |②---|
口口口口 |----|
32
口口口口 |①---|
口口口口 |----|
口口口① |②---|
口口②口 |----|
33
口口口口 |①---|
口口口口 |----|
②口口口 |②---|
口①口口 |----|
34
口口①口 |①---|
口②口口 |----|
口口口口 |②---|
口口口口 |----|
35
口口口口 |①---|
口口口口 |----|
口口①口 |②---|
口②口口 |----|
36
口口①口 |①---|
口②口口 |----|
口口口口 |②---|
口口口口 |----|
37
口口口口 |①---|
口口口口 |----|
口口①口 |②---|
口②口口 |----|
38
②口口② |①---|
口①①口 |----|
口口口口 |②---|
口口口口 |----|
39
口口口口 |----|
口口口口 |----|
口口口口 |----|
口口口口 |----|
40
口①口口 |①---|
口①口② |----|
口口口② |②---|
口口口口 |----|
41
口口口口 |①---|
①口口口 |----|
①口②口 |②---|
口口②口 |----|
42
口口口口 |①---|
①口口口 |----|
口②口口 |②---|
口口口口 |----|
43
口口口口 |①---|
口口①口 |----|
口口口② |②---|
口口口口 |----|
44
口口口口 |①---|
口口口① |----|
口口②口 |②---|
口口口口 |----|
45
口口口口 |①---|
口①口口 |----|
②口口口 |②---|
口口口口 |----|
46
口口口口 |①---|
口②②口 |--②-|
口①①口 |----|
口口口口 |----|
47
口口口口 |----|
口口口口 |----|
口口口口 |----|
口口口口 |----|
48
口口口口 |①---|
口口口口 |----|
②②②② |②---|
①①①① |----|
49
②②②② |①---|
①①①① |----|
口口口口 |②---|
口口口口 |----|
50
口口口口 |①---|
口①①口 |----|
口口②口 |②---|
口口口口 |----|
51
口口口口 |①---|
③口口③ |----|
口②②口 |②---|
口①口口 |--③-|
52
口口口口 |----|
口口口口 |----|
口①口口 |①---|
口口口口 |----|
53
口口口口 |①---|
③口口③ |----|
口②②口 |②---|
口口①口 |--③-|
54
口口口口 |----|
口口①口 |----|
口口口口 |①---|
口口口口 |----|
55
③口口③ |①---|
口②②口 |----|
口①口口 |②---|
口口口口 |--③-|
56
口口口口 |----|
口①①口 |----|
口口口口 |①---|
口口口口 |----|
57
口口口口 |①---|
口口口口 |----|
口①①口 |②---|
口②②口 |----|
58
口①口口 |①---|
口口口口 |----|
口口口口 |----|
口口口口 |----|
59
口口口口 |①---|
口口①口 |----|
口口口口 |----|
口口口口 |----|
60
口口口口 |①---|
口口口口 |----|
口①口口 |----|
口口口口 |----|
61
口口口口 |①---|
口口口口 |----|
口口口口 |----|
口口①口 |----|
62
口口口口 |①---|
①②③④ |②---|
口口口口 |③---|
口口口口 |④---|
63
口口口口 |①---|
口口口口 |②---|
④③②① |③---|
口口口口 |④---|
64
口口口口 |①---|
口口口口 |----|
口口②口 |②---|
口①口口 |----|
65
口①①口 |①---|
口口口口 |----|
口口口口 |----|
口口口口 |----|
66
①②口口 |①---|
口口③④ |②---|
口口口口 |③---|
口口口口 |④---|
67
口口②① |①---|
④③口口 |②---|
口口口口 |③---|
口口口口 |④---|
68
口口口口 |①---|
口口口口 |②---|
①②口口 |③---|
口口③④ |④---|
69
口口口口 |①---|
口口口口 |②---|
口口②① |③---|
④③口口 |④---|
70
口口口口 |①---|
①②口口 |----|
口口口口 |②---|
口口口口 |----|
71
口口口口 |①---|
口口①② |----|
口口口口 |②---|
口口口口 |----|
72
口③③口 |①---|
口②②口 |--②-|
口①①口 |----|
口口口口 |③---|
73
口口口口 |----|
口口口口 |----|
口口口口 |----|
口口口口 |----|
74
口口口① |①---|
口口口② |----|
口口口口 |②---|
口口口口 |----|
75
口口口口 |①---|
口口口口 |----|
口口口① |②---|
口口口② |----|
76
口口口口 |①---|
口口口口 |----|
口②②口 |②---|
口①①口 |----|
77
口②②口 |①---|
口①①口 |----|
口口口口 |②---|
口口口口 |----|
78
口口口口 |①---|
①口口① |----|
口口口口 |----|
口口口口 |----|
79
口口口口 |①---|
口口口口 |----|
①口口① |----|
口口口口 |----|
80
口口口口 |①---|
口口口口 |----|
口口口口 |----|
①①①① |----|
81
口口①口 |①---|
口②口口 |②---|
口口③口 |③---|
口④口口 |④---|
82
①口口① |①---|
口口口口 |----|
口口口口 |----|
口口口口 |----|
83
口口口口 |①---|
①口口① |----|
口口口口 |----|
口口口口 |----|
84
口口口口 |①---|
口口口口 |----|
①口口① |----|
口口口口 |----|
85
口口口口 |①---|
口③③口 |----|
口②②口 |②---|
①口口① |③---|

accuracy: 100%
最終更新:2022年05月10日 04:12