アットウィキロゴ
turn into white
BEMANI Sound Team "S-C-U & TATSUYA"

ADVANCED

Level: 7
BPM: 186
Notes: 492

1
口口口口 |----|
口口口口 |----|
口②口口 |----|
口口①口 |--①②|
2
②③④口 |①---|
口口①口 |--②-|
口口口口 |--③-|
口口口口 |--④-|
3
口口口口 |----|
④口口① |①---|
口②③口 |②-③-|
口口口口 |--④-|
4
口口口口 |----|
口口口口 |①---|
④口口① |②-③-|
口②③口 |--④-|
5
口口①口 |--①-|
口②口口 |②-③-|
口口③口 |----|
口口口口 |----|
6
口口口① |①---|
②②口口 |②---|
口口口③ |③---|
④④口口 |④---|
7
④④口口 |①---|
口口口③ |②---|
②②口口 |③---|
口口口① |④---|
8
口⑦⑧口 |①-②-|
口⑤⑥口 |③-④-|
口③④口 |⑤-⑥-|
口①②口 |⑦-⑧-|
9
口口口口 |①-②-|
②口口② |----|
口口口口 |----|
口①①口 |----|
10
口口②① |--①-|
口③口口 |②-③-|
口口⑥口 |--④-|
④⑤口口 |⑤-⑥-|
11
口口②① |--①-|
⑤③口⑤ |②-③-|
口口口口 |--④-|
口④④口 |⑤---|
12
①②口口 |--①-|
口口③口 |②-③-|
口⑥口口 |--④-|
口口⑤④ |⑤-⑥-|
13
①②口口 |--①-|
⑤口③⑤ |②-③-|
口口口口 |--④-|
口④④口 |⑤---|
14
⑤⑥②① |①-②-|
口③⑦口 |③-④-|
④口口⑧ |⑤-⑥-|
口口口口 |⑦-⑧-|
15
口口口口 |①-②-|
⑧口口④ |③-④-|
口⑦③口 |⑤-⑥-|
①②⑥⑤ |⑦-⑧-|
16
口①①口 |①---|
口②②口 |--②-|
口口口口 |----|
④③③④ |③-④-|
17
口①⑧口 |--①②|
⑦口②⑥ |③-④-|
⑤③口④ |⑤-⑥-|
口口口口 |⑦-⑧-|
18
②①口③ |①---|
⑤口④口 |②---|
口口口口 |③-④-|
口口口口 |--⑤-|
19
口口口口 |--①-|
口口口① |--②-|
③口②口 |--③-|
口口口口 |----|
20
②口口③ |①---|
口④①口 |②---|
口①④口 |③---|
③口口② |④---|
21
③口口③ |①---|
②口口② |--②-|
口口口口 |--③-|
口①①口 |----|
22
口口口口 |①---|
口③③口 |--②-|
口口口口 |----|
口②①口 |③---|
23
口③③口 |①---|
口口口口 |--②-|
①口口② |----|
口口口口 |③---|
24
口口口口 |①-②-|
口口口口 |③-④-|
⑥⑧⑦⑤ |⑤-⑥-|
②④③① |⑦-⑧-|
25
⑥⑦⑦⑤ |①-②-|
②④③① |③-④-|
口口口口 |⑤-⑥-|
口口口口 |⑦---|
26
⑤口口口 |①---|
①口②② |②---|
②②口① |③-④-|
口④③口 |--⑤-|
27
口①②口 |--①-|
口口口口 |--②-|
口口口口 |--③-|
口③④口 |④---|
28
口口口⑤ |----|
③④②① |①-②-|
①②④③ |③-④-|
口口口口 |--⑤-|
29
口②①口 |--①-|
③③口口 |--②-|
④④口口 |--③-|
口口口口 |--④-|
30
④②①口 |----|
口③口口 |①---|
口口③口 |②-③-|
口①②口 |--④-|
31
口口口口 |--①-|
①口口口 |--②-|
②口口口 |--③-|
口③④口 |④---|
32
口口口④ |----|
①③②① |①---|
①②③① |②-③-|
口口口口 |--④-|
33
口口口口 |--①-|
口口口① |--②-|
口口口② |--③-|
口口③口 |----|
34
口口口口 |----|
口口口口 |①---|
口②③① |②-③-|
口④⑤口 |④-⑤-|
35
口口②口 |--①-|
口③口口 |----|
①口④口 |②-③-|
口⑤口口 |④-⑤-|
36
口口口口 |----|
口②③① |①---|
口④⑤口 |②-③-|
口口口口 |④-⑤-|
37
口③口口 |--①-|
①口④② |--②-|
口⑤口口 |--③-|
口口口口 |④-⑤-|
38
④口口④ |①---|
口③③口 |--②-|
②口口② |----|
口口①口 |③-④-|
39
口口口口 |----|
口口口口 |----|
口口口口 |----|
口口口口 |----|
40
口①口口 |①---|
口①口② |----|
口①口② |②---|
口口口② |----|
41
口口口口 |①---|
①口②口 |----|
①口②口 |②---|
①口②口 |----|
42
口口口口 |----|
口口口口 |①---|
①④②口 |②-③-|
口⑤③口 |④-⑤-|
43
口口②口 |--①-|
口③口口 |----|
口口④① |②-③-|
口⑤口口 |④-⑤-|
44
口口口口 |----|
①④②口 |①---|
口⑤③口 |②-③-|
口口口口 |④-⑤-|
45
②口口口 |--①-|
口⑤③① |--②-|
口口④口 |--③-|
口口口口 |④-⑤-|
46
口口口② |①---|
口口口口 |--②-|
口①口口 |----|
口口口口 |----|
47
口口口口 |----|
口口口口 |----|
口口口口 |----|
口口口① |--①-|
48
口口口口 |①-②-|
口口口⑧ |③-④-|
⑤⑦⑥④ |⑤-⑥-|
①③②口 |⑦-⑧-|
49
⑥口口⑥ |①-②-|
①③②口 |③---|
口口口口 |④-⑤-|
口⑤④口 |--⑥-|
50
口口口口 |----|
⑤口③口 |①---|
口④口② |②-③-|
①口口口 |④-⑤-|
51
②口口① |--①-|
⑤口口⑤ |--②-|
口口口口 |③-④-|
口③④口 |--⑤-|
52
口口口口 |----|
口③口⑤ |①---|
②口④口 |②-③-|
口口口① |④-⑤-|
53
①口口② |--①-|
口口口口 |--②-|
口⑤⑤口 |③-④-|
口③④口 |--⑤-|
54
①口口口 |----|
⑤口③口 |①---|
口④口② |②-③-|
口口口口 |④-⑤-|
55
②口口① |--①-|
⑤口口⑤ |--②-|
口口口口 |③-④-|
口④③口 |--⑤-|
56
口口口① |----|
口③口⑤ |①---|
②口④口 |②-③-|
口口口口 |④-⑤-|
57
①口口② |--①-|
口口口口 |--②-|
③⑦口④ |③-④-|
口⑤⑥口 |⑤-⑥⑦|
58
②③④口 |①---|
口口①口 |--②-|
口口口口 |--③-|
口口口口 |--④-|
59
口口口口 |----|
④口口① |①---|
口②③口 |②-③-|
口口口口 |--④-|
60
口口口口 |----|
口口口口 |①---|
④口口① |②-③-|
口②③口 |--④-|
61
口口①口 |--①-|
口②口口 |②-③-|
口口③口 |----|
口口口口 |----|
62
①口口② |①---|
口⑤⑤口 |②---|
口口口口 |③-④-|
口③④口 |--⑤-|
63
口口口口 |--①-|
③口口⑥ |②-③-|
⑤口口② |--④-|
①口口④ |⑤-⑥-|
64
口⑦⑧口 |①-②-|
口⑤⑥口 |③-④-|
口③④口 |⑤-⑥-|
口①②口 |⑦-⑧-|
65
口口口口 |①-②-|
②口口② |----|
口口口口 |----|
口①①口 |----|
66
口口②① |--①-|
口③口口 |②-③-|
口口⑥口 |--④-|
④⑤口口 |⑤-⑥-|
67
口口②① |--①-|
⑤③口⑤ |②-③-|
口口口口 |--④-|
口④④口 |⑤---|
68
①②口口 |--①-|
口口③口 |②-③-|
口⑥口口 |--④-|
口口⑤④ |⑤-⑥-|
69
①②口口 |--①-|
⑤口③⑤ |②-③-|
口口口口 |--④-|
口④④口 |⑤---|
70
⑤⑥②① |①-②-|
口③⑦口 |③-④-|
④口口⑧ |⑤-⑥-|
口口口口 |⑦-⑧-|
71
口口口口 |①-②-|
⑧口口④ |③-④-|
口⑦③口 |⑤-⑥-|
①②⑥⑤ |⑦-⑧-|
72
口①①口 |①---|
口②②口 |--②-|
口口口口 |----|
④③③④ |③-④-|
73
口①⑧口 |--①②|
⑦口②⑥ |③-④-|
⑤③口④ |⑤-⑥-|
口口口口 |⑦-⑧-|
74
②①口③ |①---|
⑤口④口 |②---|
口口口口 |③-④-|
口口口口 |--⑤-|
75
口口口口 |--①-|
口口口① |--②-|
③口②口 |--③-|
口口口口 |----|
76
②口口③ |①---|
口④①口 |②---|
口①④口 |③---|
③口口② |④---|
77
③口口③ |①---|
②口口② |--②-|
口口口口 |--③-|
口①①口 |----|
78
口口口口 |①---|
口③③口 |--②-|
口口口口 |----|
口②①口 |③---|
79
口③③口 |①---|
口口口口 |--②-|
①口口② |----|
口口口口 |③---|
80
⑧口口⑦ |①-②-|
⑥口口⑤ |③-④-|
④口口③ |⑤-⑥-|
②口口① |⑦-⑧-|
81
口②①口 |①-②-|
口④③口 |③-④-|
口⑥⑤口 |⑤-⑥-|
口⑧⑦口 |⑦-⑧-|
82
⑤⑤⑤⑤ |①---|
①口口② |②---|
口③④口 |③-④-|
口口口口 |--⑤-|
83
口口口口 |--①-|
口①②口 |②---|
③口口④ |③-④-|
口⑤⑥口 |⑤-⑥-|
84
①①①① |①---|
口②口口 |②---|
口口口口
口口口口

⑤⑤⑤⑤
口口口口
口④③口 |③-④-|
口口口口 |--⑤-|
85
口口口口 |--①-|
口①②口 |②---|
③口口④ |③-④-|
口⑤⑥口 |⑤-⑥-|

accuracy: 100%
最終更新:2022年05月10日 04:22